Ссылка на приватное зеркало всего за 1$. Внимание количество ограничено!!!

OK

1+1

iTunes

мы

OK

1

WEB-DLRip

Джокер

Пифагор

Ведьмак / The Witcher сериал

Лицензия

ПШазам

ОК

Оно 2

iTunes

30
pack

Вам бонус

ВАЖНО

!!Акция!!

Alien_RageХит недели

RePack

Resident Evil 21

ИГРА 18+

pack

RePack

jed

!!Акция!!

Alien_Rage

RePack

fifa19

RePack

Assassins Creed: Odyssey

RePack

NEED FOR SPEED™ PAYBACK

4 сезон

9 сезон

Бесстыжие 9 сезон

Все сериалы

все сериалы на PB.wtf

RePack

FAR CRY 5
  

Помешанный на времени / Time Freak (Эндрю Боулер) [2018, фантастика, драма, мелодрама, комедия, WEB-DL 1080p] DUB [iTunes] pb.wtf

Помешанный на времени через торрент pb.wtf

Раздают: 3 [ 0 KB/s ]
Размер: 4.57 GB | Добавлен: 1 год 1 мес. назад | Торрент скачан:343 раза
Скачать  

06-12-2018 07:44 Помешанный на времени Скачать торрент  

Помешанный на времени / Time Freak Год выпуска: 2018
Страна: США
Жанр: фантастика, драма, мелодрама, комедия
Продолжительность: 01:44:49
Перевод: Дублированный | iTunes
Субтитры: Английские

Режиссер: Эндрю Боулер

rating

В ролях:

Марк Блокович, Мэри Элизабет Бойлэн, Эйса Баттерфилд, Корал Чамберс, Ками Кристиансен, Кристофер Эскаланте, Джерри Гарсиа, Скайлер Гизондо, Каден Дж. Грегуар, Кэмерон Харфорд

Описание:

Бросила девушка? Неужели уже ничего нельзя изменить? Можно! Студент-физик изобретает машину времени и отправляется в недалекое прошлое, чтобы исправить ошибки. В результате фатального сбоя главным действующим лицом этой любовной истории становится его лучший друг. С кем же останется девушка?

Качество: WEB-DL 1080p
Формат: MKV

Видео: MPEG-4 AVC, 5092 Кбит/с, 1920х1040, 23.976 кадр/с
Аудио#1: Русский (AC3, 6 ch, 384 Кбит/с)
Аудио#2: английский (E-AC3 6 ch, 640 Кбит/с)
скриншот  скриншот  скриншот  скриншот  скриншот  

Общее
Уникальный идентификатор : 170915133855145746257738387478190773732 (0x80950EB357D22D43BE191289E2CC55E4)
Полное имя : D:\TIME_FREAK_2018_WEB_DL_AMAZON_1080p-BLUEBIRD.mkv
Формат : Matroska
Версия формата : Version 4 / Version 2
Размер файла : 4,57 Гбайт
Продолжительность : 1 ч. 44 м.
Общий поток : 6240 Кбит/сек
Название фильма : TIME_FREAK_2018_WEB_DL_AMAZON_1080p-BLUEBIRD
Дата кодирования : UTC 2018-12-05 19:31:35
Программа кодирования : mkvmerge v6.9.1 ('Blue Panther') 32bit built on Apr 18 2014 18:15:44
Библиотека кодирования : libebml v1.3.0 + libmatroska v1.4.1
Обложка : Yes
Attachments : cover.png

Видео
Идентификатор : 1
Формат : AVC
Формат/Информация : Advanced Video Codec
Профиль формата : High@L4
Параметр CABAC формата : Да
Параметр RefFrames формата : 4 кадра
Идентификатор кодека : V_MPEG4/ISO/AVC
Продолжительность : 1 ч. 44 м.
Битрейт : 5092 Кбит/сек
Ширина : 1920 пикселей
Высота : 1040 пикселей
Соотношение сторон : 1,85:1
Режим частоты кадров : Постоянный
Частота кадров : 23,976 (24000/1001) кадра/сек
Цветовое пространство : YUV
Субдискретизация насыщенности : 4:2:0
Битовая глубина : 8 бит
Тип развёртки : Прогрессивная
Бит/(Пиксели*Кадры) : 0.106
Размер потока : 3,73 Гбайт (82%)
Заголовок : TIME_FREAK_2018_WEB_DL_AMAZON_1080p-BLUEBIRD
Default : Да
Forced : Нет
Цветовой диапазон : Limited
Основные цвета : BT.709
Характеристики трансфера : BT.709
Коэффициенты матрицы : BT.709

Аудио #1
Идентификатор : 2
Формат : AC-3
Формат/Информация : Audio Coding 3
Расширение режима : CM (complete main)
Параметр Endianness формата : Big
Идентификатор кодека : A_AC3
Продолжительность : 1 ч. 44 м.
Вид битрейта : Постоянный
Битрейт : 384 Кбит/сек
Каналы : 6 каналов
Расположение каналов : Front: L C R, Side: L R, LFE
Частота : 48,0 КГц
Частота кадров : 31,250 кадров/сек (1536 spf)
Метод сжатия : С потерями
Размер потока : 288 Мбайт (6%)
Заголовок : [DUB] DD 5.1 @ 384 kbps (iTunes)
Язык : Russian
Default : Да
Forced : Нет

Аудио #2
Идентификатор : 3
Формат : E-AC-3
Формат/Информация : Audio Coding 3
Параметр Endianness формата : Big
Идентификатор кодека : A_EAC3
Продолжительность : 1 ч. 44 м.
Вид битрейта : Постоянный
Битрейт : 640 Кбит/сек
Каналы : 6 каналов
Расположение каналов : Front: L C R, Side: L R, LFE
Частота : 48,0 КГц
Частота кадров : 187,500 кадров/сек (256 spf)
Метод сжатия : С потерями
Размер потока : 480 Мбайт (10%)
Заголовок : [ORIGINAL] DD+ 5.1 @ 640 kbps (iTunes)
Язык : English
Default : Нет
Forced : Нет

Текст
Идентификатор : 4
Формат : UTF-8
Идентификатор кодека : S_TEXT/UTF8
Идентификатор кодека/Информация : UTF-8 Plain Text
Заголовок : SDH
Язык : English
Default : Нет
Forced : Нет

pb.wtf



Скачать Помешанный на времени через торрент https://i106.fastpic.ru/big/2018/1123/ab/dd84c4d39dc5a88d2fae7c29775358ab.jpg Скачать фильм Помешанный на времени через торрент бесплантно в хорошем качестве Описание: Бросила девушка? Неужели уже ничего нельзя изменить? Можно! Студент-физик изобретает машину времени и отправляется в недалекое ... 10 10 12
Info! Золотая раздача, скачанное не засчитывается.
Торрент: Зарегистрирован [2018-12-06 07:44] · скачан: 343 раз
Статус: √ проверено
Размер: 4.57 GB
Как cкачать? Как скачать Помешанный на времени через торрент | qTorrent

% Раздел Тема Автор DL S | L
Фильмы 2018 [DVDrip, WEB-DLRip, HDrip] (DUB, MVO) [ 712 MB ] Помешанный на времени / Time Freak [2018 HDRip ""] coc900 Скачать
1 | 0
Фильмы 2018 [DVDrip, WEB-DLRip, HDrip] (DUB, MVO) [ 1.42 GB ] Помешанный на времени / Time Freak [2018 BDRip] - Twi7ter Скачать
3 | 1
Фильмы 2018 [DVDrip, WEB-DLRip, HDrip] (DUB, MVO) [ 2.18 GB ] Помешанный на времени / Time Freak [2018 BDRip] Леонид Ильич Скачать
1 | 0
Фильмы 2018 [DVDrip, WEB-DLRip, HDrip] (DUB, MVO) [ 1.41 GB ] Помешанный на времени / Time Freak [2018 BDRip] bober100 Скачать
1 | 0

28-11-2019 20:33  

Отключить всю рекламу на сайте

    Дорогой пользователь! Огромная просьба, поблагодарите релизера, оцените раздачу и оставьте свои комментарий, если Вы скачали Помешанный на времени через торрент бесплатно! Внесите свою лепту в развитие PiratBit!
    Комментировать посты могут только пользователи прошедшие не сложную регистрацию
    Показать сообщения:    

    Помешанный на времени через торрент
    Скачать бесплатно Помешанный на времени
    Помешанный на времени скачать торрент
    Помешанный на времени смотреть онлайн
    Cкачать фильм Помешанный на времени бесплатно
    Помешанный на времени скачать торрент в хорошем качестве
    Помешанный на времени смотреть онлайн бесплатно в хорошем качестве


    Вы не можете начинать темы
    Вы не можете отвечать на сообщения
    Вы не можете редактировать свои сообщения
    Вы не можете удалять свои сообщения
    Вы не можете голосовать в опросах
    Вы не можете прикреплять файлы к сообщениям
    Вы можете скачивать файлы