Ребята, если до конца года каждый наш пользователь пожертвует хотя бы 10 рублей, нам хватит денег оплатить все наши расходы.

iTunes

iTunes

Миссия невыполнима: Последствия

iTunes

Поиск

4 сезон

дом

MVO

venom

iTunes

Багровая мята

iTunes

Проклятие монахини

iTunes

Человек на Луне Хит недели

ИГРА 18+

pack

RePack

Battlefield V Хит недели

RePack

Assassins Creed: Odyssey
pack

RePack

Darksiders 3

iTunes 4K

Миссия невыполнима: Последствия

RePack

fifa19

!!Акция!!

Alien_RageХит недели

RePack

NEED FOR SPEED™ PAYBACK

SATRip

9 сезон

Бесстыжие 9 сезон

Все сериалы

все сериалы на PB.wtf

iTunes

Мэнди

RePack

FAR CRY 5
  

Проклятие монахини / The Nun (Корин Харди) [2018, ужасы, триллер, детектив, BDRip-AVC] DUB [Лицензия]

Проклятие монахини через торрент

Раздают: 2 [ 0 KB/s ]
Размер: 1.46 GB | Добавлен: 10 д. назад | Торрент скачан:54 раза
Скачать  

06-12-2018 11:51 Проклятие монахини Скачать торрент  

Проклятие монахини / The Nun
Год выпуска: 2018
Страна: США
Жанр: ужасы, триллер, детектив
Продолжительность: 01:36:34
Перевод: Дублированный | Лицензия
Субтитры: Русские (форс., полные), английский (полные, SDH)

Режиссер: Корин Харди

rating

В ролях:

Демиан Бишир, Таисса Фармига, Йонас Блоке, Бонни Ааронс, Ингрид Бису, Шарлотта Хоуп, Сандра Телес, Аугуст Матуро, Джек Фальк, Линетт Газа

Описание:

Когда в уединенном монастыре в Румынии совершает самоубийство молодая монахиня, расследовать происшествие Ватикан отправляет священника с туманным прошлым и послушницу на пороге невозвратных обетов. Рискуя не только жизнями, но и верой, и даже своими душами, они сталкиваются со злобной силой, принявшей облик демонической монахини, а монастырь становится полем ужасающей битвы между живыми и проклятыми.

Качество: BDRip-AVC
Формат: MKV

Видео: 720x300 (2.40:1), 23,976 fps, x264 ~1 714 kbps avg, 0.331 bit/pixel
Аудио: 48 kHz, AC3 Dolby Digital, 3/2 (L,C,R,l,r) + LFE ch, ~448.00 kbps avg | RUS (Лицензия)
скриншот  скриншот  скриншот  скриншот  скриншот  

Общее
Уникальный идентификатор : 226473936663433816373686015733002454230 (0xAA614B2AF6EAC6E064178FE357A4C4D6)
Полное имя : F:OlLanDGroupThe.Nun.2018.BDRip(AVC).OlLanDGroup.mkv
Формат : Matroska
Версия формата : Version 4 / Version 2
Размер файла : 1,46 Гбайт
Продолжительность : 1 ч. 36 м.
Общий поток : 2163 Кбит/сек
Название фильма : The.Nun.2018 #TorpedoUK#
Дата кодирования : UTC 2018-12-06 11:34:20
Программа кодирования : mkvmerge v25.0.0 ('Prog Noir') 64-bit
Библиотека кодирования : libebml v1.3.6 + libmatroska v1.4.9

Видео
Идентификатор : 1
Формат : AVC
Формат/Информация : Advanced Video Codec
Профиль формата : High@L4.1
Параметр CABAC формата : Да
Параметр ReFrames формата : 10 кадров
Идентификатор кодека : V_MPEG4/ISO/AVC
Продолжительность : 1 ч. 36 м.
Битрейт : 1714 Кбит/сек
Ширина : 720 пикселей
Высота : 300 пикселей
Соотношение сторон : 2,40:1
Режим частоты кадров : Постоянный
Частота кадров : 23,976 (24000/1001) кадра/сек
Цветовое пространство : YUV
Субдискретизация насыщенности : 4:2:0
Битовая глубина : 8 бит
Тип развёртки : Прогрессивная
Бит/(Пиксели*Кадры) : 0.331
Размер потока : 1,16 Гбайт (79%)
Библиотека кодирования : x264 core 146 r2538 121396c
Настройки программы : cabac=1 / ref=10 / deblock=1:-2:-3 / analyse=0x3:0x113 / me=umh / subme=11 / psy=1 / psy_rd=0.97:0.07 / mixed_ref=1 / me_range=48 / chroma_me=1 / trellis=2 / 8x8dct=1 / cqm=0 / deadzone=21,11 / fast_pskip=1 / chroma_qp_offset=-3 / threads=6 / lookahead_threads=1 / sliced_threads=0 / nr=0 / decimate=1 / interlaced=0 / bluray_compat=0 / constrained_intra=0 / bframes=11 / b_pyramid=2 / b_adapt=2 / b_bias=0 / direct=3 / weightb=1 / open_gop=0 / weightp=2 / keyint=240 / keyint_min=23 / scenecut=40 / intra_refresh=0 / rc_lookahead=40 / rc=2pass / mbtree=0 / bitrate=1714 / ratetol=1.0 / qcomp=0.60 / qpmin=0 / qpmax=69 / qpstep=4 / cplxblur=20.0 / qblur=0.5 / vbv_maxrate=50000 / vbv_bufsize=62500 / nal_hrd=none / filler=0 / ip_ratio=1.40 / pb_ratio=1.30 / aq=1:1.00
Default : Да
Forced : Нет

Аудио
Идентификатор : 2
Формат : AC-3
Формат/Информация : Audio Coding 3
Расширение режима : CM (complete main)
Параметр Endianness формата : Big
Идентификатор кодека : A_AC3
Продолжительность : 1 ч. 36 м.
Вид битрейта : Постоянный
Битрейт : 448 Кбит/сек
Каналы : 6 каналов
Расположение каналов : Front: L C R, Side: L R, LFE
Частота : 48,0 КГц
Частота кадров : 31,250 кадров/сек (1536 spf)
Битовая глубина : 16 бит
Метод сжатия : С потерями
Размер потока : 309 Мбайт (21%)
Заголовок : DUB [License]
Язык : Russian
Default : Да
Forced : Нет

Текст #1
Идентификатор : 3
Формат : UTF-8
Идентификатор кодека : S_TEXT/UTF8
Идентификатор кодека/Информация : UTF-8 Plain Text
Продолжительность : 1 ч. 29 м.
Битрейт : 0 бит/сек
Count of elements : 19
Размер потока : 632 байт (0%)
Заголовок : Forced
Язык : Russian
Default : Да
Forced : Нет

Текст #2
Идентификатор : 4
Формат : UTF-8
Идентификатор кодека : S_TEXT/UTF8
Идентификатор кодека/Информация : UTF-8 Plain Text
Продолжительность : 1 ч. 35 м.
Битрейт : 51 бит/сек
Count of elements : 644
Размер потока : 35,7 Кбайт (0%)
Заголовок : Full
Язык : Russian
Default : Нет
Forced : Нет

Текст #3
Идентификатор : 5
Формат : UTF-8
Идентификатор кодека : S_TEXT/UTF8
Идентификатор кодека/Информация : UTF-8 Plain Text
Продолжительность : 1 ч. 30 м.
Битрейт : 30 бит/сек
Count of elements : 639
Размер потока : 20,4 Кбайт (0%)
Заголовок : Full
Язык : English
Default : Нет
Forced : Нет

Текст #4
Идентификатор : 6
Формат : UTF-8
Идентификатор кодека : S_TEXT/UTF8
Идентификатор кодека/Информация : UTF-8 Plain Text
Продолжительность : 1 ч. 35 м.
Битрейт : 38 бит/сек
Count of elements : 942
Размер потока : 27,1 Кбайт (0%)
Заголовок : SDH
Язык : English
Default : Нет
Forced : Нет

Меню
00:00:00.000 : en:00:00:00.000
00:08:42.772 : en:00:08:42.772
00:17:55.074 : en:00:17:55.074
00:29:17.506 : en:00:29:17.506
00:38:05.033 : en:00:38:05.033
00:48:49.802 : en:00:48:49.802
00:58:49.192 : en:00:58:49.192
01:09:16.944 : en:01:09:16.944
01:18:14.565 : en:01:18:14.565
01:24:18.637 : en:01:24:18.637
01:32:30.295 : en:01:32:30.295




Скачать Проклятие монахини через торрент https://i106.fastpic.ru/big/2018/1202/8d/86250530454a80cdf13aa098d3dadb8d.jpg Скачать фильм Проклятие монахини через торрент бесплантно в хорошем качестве Описание: Когда в уединенном монастыре в Румынии совершает самоубийство молодая монахиня, расследовать происшествие Ватикан отправляет ... 10 10 3
Info! Золотая раздача, скачанное не засчитывается.
Торрент: Зарегистрирован [2018-12-06 11:51] · скачан: 54 раз
Статус: √ проверено
Размер: 1.46 GB
Как cкачать? Как скачать Проклятие монахини через торрент | qTorrent

% Раздел Тема Автор DL S | L
Ultra HD (UHD: 2K, 4K, 8K) — видео сверхвысокой чёткости [ 18.92 GB ] Проклятие монахини / The Nun [2018 UHD BDRip 2160p] [SDR] DUB sheker187 Скачать
3 | 0
Ultra HD (UHD: 2K, 4K, 8K) — видео сверхвысокой чёткости [ 54.46 GB ] Проклятие монахини / The Nun [2018 UHD Blu-ray 2160p] DUB sheker187 Скачать
2 | 1
Ultra HD (UHD: 2K, 4K, 8K) — видео сверхвысокой чёткости [ 11.29 GB ] Проклятие монахини / The Nun [2018 UHD BDRip 2160p] DUB sheker187 Скачать
4 | 1
Ultra HD (UHD: 2K, 4K, 8K) — видео сверхвысокой чёткости [ 46.93 GB ] Проклятие монахини / The Nun [2018 UHD BDRemux 2160p] DUB sheker187 Скачать
1 | 0
Фильмы 2018 [DVDrip, WEB-DLRip, HDrip] (DUB, MVO) [ 746 MB ] Проклятие монахини / The Nun [2018 HDRip] DUB [] bober100 Скачать
1 | 0
Фильмы 2018 [DVDrip, WEB-DLRip, HDrip] (DUB, MVO) [ 1.46 GB ] Проклятие монахини / The Nun [2018 BDRip] DUB [] bober100 Скачать
1 | 0
Фильмы (Blu-ray, BD-Remux, HDDVD) [ 32.01 GB ] Проклятие монахини / The Nun [2018 Blu-ray 1080p] DUB [] bober100 Скачать
4 | 0


>> Регистрируемся здесь <<






Отзывы и комментарии о схеме читаем и пишем здесь: ---> Отзывы и комментарии о схеме

Новые благодарочки в телеграм довольных пользователей:
скриншот   скриншот   скриншот   скриншот   скриншот
    Дорогой пользователь! Огромная просьба, поблагодарите релизера, оцените раздачу и оставьте свои комментарий, если Вы скачали Проклятие монахини через торрент бесплатно! Внесите свою лепту в развитие PiratBit!
    Комментировать посты могут только пользователи прошедшие не сложную регистрацию
    Показать сообщения:    

    Проклятие монахини через торрент
    Скачать бесплатно Проклятие монахини
    Проклятие монахини скачать торрент
    Проклятие монахини смотреть онлайн
    Cкачать фильм Проклятие монахини бесплатно
    Проклятие монахини скачать торрент в хорошем качестве
    Проклятие монахини смотреть онлайн бесплатно в хорошем качестве


    Вы не можете начинать темы
    Вы не можете отвечать на сообщения
    Вы не можете редактировать свои сообщения
    Вы не можете удалять свои сообщения
    Вы не можете голосовать в опросах
    Вы не можете прикреплять файлы к сообщениям
    Вы можете скачивать файлы