Ссылка на приватное зеркало нашего сайта всего за 1$. Внимание количество ограничено!!!

2 сезон

iTunes

1 сезон

1

2 сезон

2 сезон

iTunes

1 сезон

RePack

30

Новинка

ВАЖНО

ИГРА 18+

pack

RePack

MK11
pack

Забери бонус

RePack

jed

!!Акция!!

Alien_Rage

RePack

fifa19

RePack

Assassins Creed: Odyssey

RePack

NEED FOR SPEED™ PAYBACK

4 сезон

9 сезон

Бесстыжие 9 сезон

Все сериалы

все сериалы на PB.wtf

RePack

FAR CRY 5
  

Возвращение домой / Homecoming / Сезон: 1 / Серии: 1-10 из 10 (Сэм Эсмейл) [2018, Триллер, драма, WEBRip 1080p] [MVO] (TVShows) pb.wtf

Возвращение домой через торрент pb.wtf

Размер: 21.77 GB | Добавлен: 1 год 11 мес. назад | Торрент скачан:12 раз
Скачать  

06-12-2018 13:28 Возвращение домой Скачать торрент  

Возвращение домой / Homecoming

Год выпуска: 2018
Страна: США
Жанр: Триллер, драма
Продолжительность: ~ 00:30:00
Перевод: Профессиональный (многоголосый закадровый) - TVShows
Режиссёр: Сэм Эсмейл
В ролях: Джулия Робертс, Бобби Каннавейл, Стэфан Джеймс, Шей Уигэм, Алекс Карповски, Айден Майэри, Маркус Хендерсон, Сисси Спейсек, Билл Стивенсон, Марианн Жан-Баптист
Описание: Солдат и социальный работник секретной правительственной службы пытаются вернуться к нормальной жизни в роли гражданских.

ratingскриншот  

Сэмпл: http://sendfile.su/1459840

Качество: WEBRip 1080p
Контейнер: MKV
Видео: MPEG-4 AVC, 1920x1080 (16:9), 23.976 fps, 9510 Kbps
Аудио 1: AC3, 48.0 KHz, 6 ch, 384 kbps [Rus]
Аудио 2: EAC3, 48.0 KHz, 6 ch, 640 kbps [Eng]
Субтитры: английские
Общее
Уникальный идентификатор : 295448253111460281501983290836959570565 (0xDE45438653DBAE2A13DD386D90332A85)
Полное имя : I:\Тифайл\Cкач. на заливку - 2\Homecoming.S01.1080p.TVShows\Homecoming.S01E01.1080p.TVShows.mkv
Формат : Matroska
Версия формата : Version 4 / Version 2
Размер файла : 1,98 Гбайт
Продолжительность : 26 м. 52 с.
Режим общего битрейта : Переменный
Общий поток : 10,5 Мбит/сек
Дата кодирования : UTC 2018-12-04 20:31:30
Программа кодирования : mkvmerge v28.2.0 ('The Awakening') 32-bit
Библиотека кодирования : libebml v1.3.6 + libmatroska v1.4.9

Видео
Идентификатор : 1
Формат : AVC
Формат/Информация : Advanced Video Codec
Профиль формата : High@L4
Параметр CABAC формата : Да
Параметр ReFrames формата : 4 кадра
Идентификатор кодека : V_MPEG4/ISO/AVC
Продолжительность : 26 м. 52 с.
Вид битрейта : Переменный
Битрейт : 9510 Кбит/сек
Максимальный битрейт : 15,0 Мбит/сек
Ширина : 1920 пикселей
Высота : 1080 пикселей
Соотношение сторон : 16:9
Режим частоты кадров : Постоянный
Частота кадров : 23,976 (24000/1001) кадра/сек
Цветовое пространство : YUV
Субдискретизация насыщенности : 4:2:0
Битовая глубина : 8 бит
Тип развёртки : Прогрессивная
Бит/(Пиксели*Кадры) : 0.191
Размер потока : 1,79 Гбайт (90%)
Default : Да
Forced : Нет
Цветовой диапазон : Limited
Основные цвета : BT.709
Характеристики трансфера : BT.709
Коэффициенты матрицы : BT.709

Аудио #1
Идентификатор : 2
Формат : AC-3
Формат/Информация : Audio Coding 3
Параметр Endianness формата : Big
Идентификатор кодека : A_AC3
Продолжительность : 26 м. 52 с.
Вид битрейта : Постоянный
Битрейт : 384 Кбит/сек
Каналы : 6 каналов
Расположение каналов : Front: L C R, Side: L R, LFE
Частота : 48,0 КГц
Частота кадров : 31,250 кадров/сек (1536 spf)
Битовая глубина : 16 бит
Метод сжатия : С потерями
Размер потока : 73,8 Мбайт (4%)
Заголовок : TVShows
Язык : Russian
ServiceKind/String : Complete Main
Default : Да
Forced : Нет

Аудио #2
Идентификатор : 3
Формат : E-AC-3
Формат/Информация : Enhanced Audio Coding 3
Параметр Endianness формата : Big
Идентификатор кодека : A_EAC3
Продолжительность : 26 м. 52 с.
Вид битрейта : Постоянный
Битрейт : 640 Кбит/сек
Каналы : 6 каналов
Расположение каналов : Front: L C R, Side: L R, LFE
Частота : 48,0 КГц
Частота кадров : 187,500 кадров/сек (256 spf)
Метод сжатия : С потерями
Размер потока : 123 Мбайт (6%)
Заголовок : Original
Язык : English
ServiceKind/String : Complete Main
Default : Нет
Forced : Нет

Текст
Идентификатор : 4
Формат : UTF-8
Идентификатор кодека : S_TEXT/UTF8
Идентификатор кодека/Информация : UTF-8 Plain Text
Продолжительность : 25 м. 39 с.
Битрейт : 99 бит/сек
ElementCount : 553
Размер потока : 18,6 Кбайт (0%)
Заголовок : English
Язык : English
Default : Нет
Forced : Нет
скриншот  скриншот  скриншот  
pb.wtf



Скачать Возвращение домой через торрент https://i98.fastpic.ru/big/2018/1114/41/46550332c0d1e9336a72aeb8af8b9941.png Скачать фильм Возвращение домой через торрент бесплантно в хорошем качестве Описание: Солдат и социальный работник секретной правительственной службы пытаются вернуться к нормальной жизни в роли гражданских.  Сэмпл: ... 5.5 10 2
Торрент: Зарегистрирован [2018-12-06 13:28] · скачан: 12 раз
Статус: √ проверено
Размер: 21.77 GB
Как cкачать? Как скачать Возвращение домой через торрент | qTorrent

% Раздел Тема Автор DL S | L
Зарубежные сериалы [ 23.03 GB ] Возвращение домой / Homecoming / Сезон: 2 / Серии: 1-7 из 7 [2020 WEBRip 1080p] MVO [Jaskier] bober100 Скачать
2 | 0
Зарубежные сериалы [ 23.41 GB ] Возвращение домой / Homecoming / Сезон: 2 / Серии: 1-7 из 7 [2020 WEBRip 1080p] MVO [LostFilm] bober100 Скачать
2 | 0
Зарубежные сериалы [ 23.8 GB ] Возвращение домой / Homecoming / Сезон: 2 / Серии: 1-7 из 7 [2020 WEBRip 1080p] MVO [NewStudio] bober100 Скачать
1 | 0
Зарубежные сериалы [ 7.96 GB ] Возвращение домой / Homecoming / Сезон: 1 / Серии: 1-10 из 10 [2018 WEBRip 720p] MVO [Good People] bober100 Скачать
1 | 0
Зарубежные сериалы [ 3.73 GB ] Возвращение домой / Homecoming / Сезон: 1 / Серии: 1-10 из 10 [2018 WEB-DLRip] MVO [NewStudio] bober100 Скачать
1 | 0
Зарубежные сериалы [ 16.68 GB ] Возвращение домой / Homecoming / Сезон: 1 / Серии: 1-10 из 10 [2018 WEB-DL 1080p] [MVO] killermax2013 Скачать
1 | 0
Зарубежные сериалы [ 6.85 GB ] Возвращение домой / Homecoming / Сезон: 1 / Серии: 1-10 из 10 [2018 WEB-DL 720p] MVO [Jaskier] bober100 Скачать
1 | 0

28-11-2019 20:33  

Отключить всю рекламу на сайте

    Дорогой пользователь! Огромная просьба, поблагодарите релизера, оцените раздачу и оставьте свои комментарий, если Вы скачали Возвращение домой через торрент бесплатно! Внесите свою лепту в развитие PiratBit!
    Комментировать посты могут только пользователи прошедшие не сложную регистрацию
    Показать сообщения:    

    Возвращение домой через торрент
    Скачать бесплатно Возвращение домой
    Возвращение домой скачать торрент
    Возвращение домой смотреть онлайн
    Cкачать фильм Возвращение домой бесплатно
    Возвращение домой скачать торрент в хорошем качестве
    Возвращение домой смотреть онлайн бесплатно в хорошем качестве


    Вы не можете начинать темы
    Вы не можете отвечать на сообщения
    Вы не можете редактировать свои сообщения
    Вы не можете удалять свои сообщения
    Вы не можете голосовать в опросах
    Вы не можете прикреплять файлы к сообщениям
    Вы можете скачивать файлы