Ссылка на приватное зеркало всего за 1$. Внимание количество ограничено!!!

OK

1+1

iTunes

мы

OK

1

WEB-DLRip

Джокер

Пифагор

Ведьмак / The Witcher сериал

Лицензия

ПШазам

ОК

Оно 2

iTunes

30
pack

Вам бонус

ВАЖНО

!!Акция!!

Alien_RageХит недели

RePack

Resident Evil 21

ИГРА 18+

pack

RePack

jed

RePack

fifa19

RePack

Assassins Creed: Odyssey

RePack

NEED FOR SPEED™ PAYBACK

4 сезон

9 сезон

Бесстыжие 9 сезон

Все сериалы

все сериалы на PB.wtf

RePack

FAR CRY 5
  

Маленькая мисс Дулиттл / Liliane Susewind - Ein tierisches Abenteuer (Йоахим Масаннек) [2018, фэнтези, комедия, семейный, BDRip 720p] MVO ["Синема УС"] pb.wtf

Маленькая мисс Дулиттл через торрент pb.wtf

Размер: 4.96 GB | Добавлен: 1 год 1 мес. назад | Торрент скачан:32 раза
Скачать  

06-12-2018 13:46 Маленькая мисс Дулиттл Скачать торрент  

Маленькая мисс Дулиттл / Liliane Susewind - Ein tierisches Abenteuer Год выпуска: 2018
Страна: Германия
Жанр: фэнтези, комедия, семейный
Продолжительность: 01:39:28
Перевод: Любительский (многоголосый) | "Синема УС"
Субтитры: отсутствуют

Режиссер: Йоахим Масаннек

rating

В ролях:

Пери Баумейстер, Айлин Тецель, Кристоф Мария Хербст, Мерет Беккер, Том Бек, Малу Ляйхер, Аарон Кисёв, Фелис Аренс, Бюргер Ларс Дитрих

Описание:

Рыжеволосая девочка Лилиан хранит невероятную тайну – она умеет разговаривать с животными. Эта способность много раз становилась причиной недоразумений и проблем для всей ее семьи. Но после переезда в другой город у Лили, наконец, появляются друзья, которым она может доверять. Ее удивительный дар станет единственной надеждой на спасение слоненка, похищенного из зоопарка.

Качество: BDRip 720p
Формат: MKV

Видео: h.264, 6 685 kb/s, 1280x532
Аудио#1: Русский (AC3, 2 ch, 448 Кбит/с)
скриншот  скриншот  скриншот  

Общее
Уникальный идентификатор : 170367535260926413059658373576609995342 (0x802B9801611AA6E593DC50D115839A4E)
Полное имя : D:\liliane.susewind.ein.tierisches.abenteuer.2018.P.BDRip.72Op_KOSHARA.mkv
Формат : Matroska
Версия формата : Version 2
Размер файла : 4,96 Гбайт
Продолжительность : 1 ч. 39 м.
Режим общего битрейта : Переменный
Общий поток : 7135 Кбит/сек
Дата кодирования : UTC 2018-12-06 10:18:41
Программа кодирования : mkvmerge v8.3.0 ('Over the Horizon') 64bit
Библиотека кодирования : libebml v1.3.1 + libmatroska v1.4.2

Видео
Идентификатор : 1
Формат : AVC
Формат/Информация : Advanced Video Codec
Профиль формата : High@L4.1
Параметр CABAC формата : Да
Параметр RefFrames формата : 4 кадра
Идентификатор кодека : V_MPEG4/ISO/AVC
Продолжительность : 1 ч. 39 м.
Вид битрейта : Переменный
Битрейт : 6685 Кбит/сек
Максимальный битрейт : 7500 Кбит/сек
Ширина : 1280 пикселей
Высота : 532 пикселя
Соотношение сторон : 2,40:1
Режим частоты кадров : Постоянный
Частота кадров : 23,976 (24000/1001) кадра/сек
Стандарт вещания : Component
Цветовое пространство : YUV
Субдискретизация насыщенности : 4:2:0
Битовая глубина : 8 бит
Тип развёртки : Прогрессивная
Бит/(Пиксели*Кадры) : 0.401
Размер потока : 4,55 Гбайт (92%)
Default : Да
Forced : Нет
Цветовой диапазон : Limited
Основные цвета : BT.709
Характеристики трансфера : BT.709
Коэффициенты матрицы : BT.709

Аудио
Идентификатор : 2
Формат : AC-3
Формат/Информация : Audio Coding 3
Расширение режима : CM (complete main)
Параметр Endianness формата : Big
Идентификатор кодека : A_AC3
Продолжительность : 1 ч. 39 м.
Вид битрейта : Постоянный
Битрейт : 448 Кбит/сек
Каналы : 2 канала
Расположение каналов : Front: L R
Частота : 48,0 КГц
Частота кадров : 31,250 кадров/сек (1536 spf)
Метод сжатия : С потерями
Размер потока : 319 Мбайт (6%)
Default : Да
Forced : Нет

pb.wtf



Скачать Маленькая мисс Дулиттл через торрент https://c.radikal.ru/c12/1812/e8/e3fa41db5323.jpg Скачать фильм Маленькая мисс Дулиттл через торрент бесплантно в хорошем качестве Описание: Рыжеволосая девочка Лилиан хранит невероятную тайну – она умеет разговаривать с животными. Эта способность много раз становилась ... 10 10 4
Торрент: Зарегистрирован [2018-12-06 13:46] · скачан: 32 раз
Статус: # сомнительно
Размер: 4.96 GB
Как cкачать? Как скачать Маленькая мисс Дулиттл через торрент | qTorrent

% Раздел Тема Автор DL S | L
T Фильмы (мультфильмы) cо спонсором показа (Новинки AVI/MKV) [ 1.37 GB ] Маленькая мисс Дулиттл / Liliane Susewind - Ein tierisches Abenteuer [2018 HDRip] MVO ["Синема УС"] bober100 Скачать
1 | 0

28-11-2019 20:33  

Отключить всю рекламу на сайте

    Дорогой пользователь! Огромная просьба, поблагодарите релизера, оцените раздачу и оставьте свои комментарий, если Вы скачали Маленькая мисс Дулиттл через торрент бесплатно! Внесите свою лепту в развитие PiratBit!
    Комментировать посты могут только пользователи прошедшие не сложную регистрацию
    Показать сообщения:    

    Маленькая мисс Дулиттл через торрент
    Скачать бесплатно Маленькая мисс Дулиттл
    Маленькая мисс Дулиттл скачать торрент
    Маленькая мисс Дулиттл смотреть онлайн
    Cкачать фильм Маленькая мисс Дулиттл бесплатно
    Маленькая мисс Дулиттл скачать торрент в хорошем качестве
    Маленькая мисс Дулиттл смотреть онлайн бесплатно в хорошем качестве


    Вы не можете начинать темы
    Вы не можете отвечать на сообщения
    Вы не можете редактировать свои сообщения
    Вы не можете удалять свои сообщения
    Вы не можете голосовать в опросах
    Вы не можете прикреплять файлы к сообщениям
    Вы можете скачивать файлы