Ссылка на приватное зеркало нашего сайта всего за 1$. Внимание количество ограничено!!!

2 сезон

iTunes

iTunes

1

iTunes

iTunes

iTunes

WEBRip

iTunes

30
pack

Новость дня

ВАЖНО

!!Акция!!

Alien_RageХит недели

RePack

Horizon Zero Dawn

ИГРА 18+

pack

RePack

jed

!!Акция!!

Alien_Rage

RePack

fifa19

RePack

Assassins Creed: Odyssey

RePack

NEED FOR SPEED™ PAYBACK

4 сезон

9 сезон

Бесстыжие 9 сезон

Все сериалы

все сериалы на PB.wtf

RePack

FAR CRY 5
  

Маленькая мисс Дулиттл / Liliane Susewind - Ein tierisches Abenteuer (Йоахим Масаннек) [2018, фэнтези, комедия, семейный, BDRip 720p] DUB [iTunes] pb.wtf

Маленькая мисс Дулиттл через торрент pb.wtf

Размер: 4.02 GB | Добавлен: 7 мес. назад | Торрент скачан:40 раз
Скачать  

06-12-2018 13:46 Маленькая мисс Дулиттл Скачать торрент  

Маленькая мисс Дулиттл | Liliane Susewind - Ein tierisches Abenteuer Год выпуска: 2018
Страна: Германия
Студия: Dreamtool Entertainment, Velvet Films
Жанр: фэнтези, комедия, семейный
Продолжительность: 01:40:56
Перевод: Дублированный | iTunes
Субтитры: Русские (Forced [на непереведенные места]), английские

Режиссер: Йоахим Масаннек

rating

В ролях: Пери Баумейстер, Айлин Тецель, Кристоф Мария Хербст, Мерет Беккер, Том Бек, Малу Ляйхер, Аарон Кисёв, Фелис Аренс, Бюргер Ларс Дитрих

Описание: Рыжеволосая Лилиан не просто обожает животных, но и умеет понимать их язык и отвечать им. О ее невероятной способности знают только члены семьи, и они всячески оберегают тайну. Но любым тайнам в свое время всегда приходит конец, особенно если на кону стоит спасение зоопарка.

Качество: BDRip 720p
Формат: MKV

Видео: MPEG-4 AVC, 1280x536, 4689 Kbit/s, 23.976 fps
Аудио #01: 48 kHz, AC3, 5.1, 384 Kbps | iTunes | RUS |
Аудио #02: 48 kHz, AC3, 5.1, 640 Kbps | Оригинал | ENG |
скриншот  скриншот  скриншот  скриншот  скриншот  

General
Unique ID : 81525841939870426901841449067977184342 (0x3D554E578BA3556FAD550C1F10911456)
Complete name : E:Video111Little.Miss.Doolittle.2018.BDRip.720.seleZen.mkv
Format : Matroska
Format version : Version 4
File size : 4.02 GiB
Duration : 1 h 40 min
Overall bit rate : 5 704 kb/s
Movie name : Little Miss Doolittle 2018 from селезень
Encoded date : UTC 2020-02-07 16:57:13
Writing application : mkvmerge v40.0.0 ('Old Town Road + Pony') 64-bit
Writing library : libebml v1.3.9 + libmatroska v1.5.2

Video
ID : 1
Format : AVC
Format/Info : Advanced Video Codec
Format profile : High@L4.1
Format settings : CABAC / 12 Ref Frames
Format settings, CABAC : Yes
Format settings, Reference : 12 frames
Codec ID : V_MPEG4/ISO/AVC
Duration : 1 h 40 min
Bit rate : 4 689 kb/s
Width : 1 280 pixels
Height : 536 pixels
Display aspect ratio : 2.40:1
Frame rate mode : Constant
Frame rate : 23.976 (24000/1001) FPS
Color space : YUV
Chroma subsampling : 4:2:0
Bit depth : 8 bits
Scan type : Progressive
Bits/(Pixel*Frame) : 0.285
Stream size : 3.30 GiB (82%)
Title : Encoded by seleZen
Writing library : x264 core 142 r2431+42 c69a006 tMod [8-bit@all X86_64]
Encoding settings : cabac=1 / ref=12 / deblock=1:-2:-2 / analyse=0x3:0x133 / me=umh / subme=10 / psy=1 / fade_compensate=0.00 / psy_rd=1.01:0.02 / mixed_ref=1 / me_range=32 / chroma_me=1 / trellis=2 / 8x8dct=1 / cqm=0 / deadzone=21,11 / fast_pskip=0 / chroma_qp_offset=-3 / threads=24 / lookahead_threads=4 / sliced_threads=0 / nr=0 / decimate=0 / interlaced=0 / bluray_compat=0 / constrained_intra=0 / fgo=0 / bframes=8 / b_pyramid=2 / b_adapt=2 / b_bias=0 / direct=3 / weightb=1 / open_gop=0 / weightp=2 / keyint=240 / keyint_min=23 / scenecut=40 / intra_refresh=0 / rc_lookahead=50 / rc=2pass / mbtree=0 / bitrate=4689 / ratetol=1.0 / qcomp=0.60 / qpmin=0:0:0 / qpmax=51:51:51 / qpstep=4 / cplxblur=20.0 / qblur=0.5 / vbv_maxrate=50000 / vbv_bufsize=62500 / nal_hrd=none / filler=0 / ip_ratio=1.40 / pb_ratio=1.30 / aq=3:0.80 / aq-sensitivity=10.00 / aq-factor=1.00:1.00:1.00 / aq2=0 / aq3=0
Language : English
Default : Yes
Forced : No

Audio #1
ID : 2
Format : AC-3
Format/Info : Audio Coding 3
Commercial name : Dolby Digital
Codec ID : A_AC3
Duration : 1 h 40 min
Bit rate mode : Constant
Bit rate : 384 kb/s
Channel(s) : 6 channels
Channel layout : L R C LFE Ls Rs
Sampling rate : 48.0 kHz
Frame rate : 31.250 FPS (1536 SPF)
Compression mode : Lossy
Stream size : 277 MiB (7%)
Title : iTunes
Language : Russian
Service kind : Complete Main
Default : Yes
Forced : Yes

Audio #2
ID : 3
Format : AC-3
Format/Info : Audio Coding 3
Commercial name : Dolby Digital
Codec ID : A_AC3
Duration : 1 h 40 min
Bit rate mode : Constant
Bit rate : 640 kb/s
Channel(s) : 6 channels
Channel layout : L R C LFE Ls Rs
Sampling rate : 48.0 kHz
Frame rate : 31.250 FPS (1536 SPF)
Compression mode : Lossy
Stream size : 462 MiB (11%)
Title : Original
Language : English
Service kind : Complete Main
Default : No
Forced : No

Text #1
ID : 4
Format : UTF-8
Codec ID : S_TEXT/UTF8
Codec ID/Info : UTF-8 Plain Text
Duration : 1 min 22 s
Bit rate : 112 b/s
Count of elements : 20
Stream size : 1.14 KiB (0%)
Title : Forced [на непереведенные места]
Language : Russian
Default : Yes
Forced : Yes

Text #2
ID : 5
Format : UTF-8
Codec ID : S_TEXT/UTF8
Codec ID/Info : UTF-8 Plain Text
Duration : 1 h 36 min
Bit rate : 61 b/s
Count of elements : 1386
Stream size : 43.8 KiB (0%)
Title : SDH
Language : English
Default : No
Forced : No

Menu
00:00:00.000 : en:Глава 01
00:07:11.514 : en:Глава 02
00:15:21.504 : en:Глава 03
00:23:46.425 : en:Глава 04
00:33:07.527 : en:Глава 05
00:42:49.692 : en:Глава 06
00:51:15.239 : en:Глава 07
01:00:49.271 : en:Глава 08
01:08:14.090 : en:Глава 09
01:16:45.559 : en:Глава 10
01:24:02.788 : en:Глава 11
01:31:32.445 : en:Глава 12

pb.wtf



Скачать Маленькая мисс Дулиттл через торрент https://img15.lostpic.net/2020/02/07/bde104787c9a16ccf5dfbb7d114e604e.jpg Скачать фильм Маленькая мисс Дулиттл через торрент бесплантно в хорошем качестве Описание: Рыжеволосая Лилиан не просто обожает животных, но и умеет понимать их язык и отвечать им. О ее невероятной способности знают ... 10 10 6
Торрент: Зарегистрирован [2020-02-07 17:06] · скачан: 40 раз
Статус: √ проверено
Размер: 4.02 GB
Как cкачать? Как скачать Маленькая мисс Дулиттл через торрент | qTorrent

% Раздел Тема Автор DL S | L
Фильмы 2018 [DVDrip, WEB-DLRip, HDrip] (DUB, MVO) [ 748 MB ] Маленькая мисс Дулиттл / Liliane Susewind - Ein tierisches Abenteuer [2018 HDRip] bober100 Скачать
2 | 0
Фильмы [HD 720p, 1080p] (Хороший звук DUB, MVO) [ 7.75 GB ] Маленькая мисс Дулиттл / Liliane Susewind - Ein tierisches Abenteuer [2018 BDRip 1080p] bober100 Скачать
4 | 0
Фильмы (Blu-ray, BD-Remux, HDDVD) [ 20.05 GB ] Маленькая мисс Дулиттл / Liliane Susewind - Ein tierisches Abenteuer [2018 BD Remux 1080p] bober100 Скачать
1 | 0
Фильмы (WEB-DL 720p, 1080p) [ 3.44 GB ] Маленькая мисс Дулиттл / Liliane Susewind - Ein tierisches Abenteuer [2018 WEB-DL 1080p] bober100 Скачать
1 | 0
Фильмы 2018 [DVDrip, WEB-DLRip, HDrip] (DUB, MVO) [ 1.46 GB ] Маленькая мисс Дулиттл / Liliane Susewind - Ein tierisches Abenteuer [2018 BDRip] bober100 Скачать
1 | 0

28-11-2019 20:33  

Отключить всю рекламу на сайте

    Дорогой пользователь! Огромная просьба, поблагодарите релизера, оцените раздачу и оставьте свои комментарий, если Вы скачали Маленькая мисс Дулиттл через торрент бесплатно! Внесите свою лепту в развитие PiratBit!
    Комментировать посты могут только пользователи прошедшие не сложную регистрацию
    Показать сообщения:    

    Маленькая мисс Дулиттл через торрент
    Скачать бесплатно Маленькая мисс Дулиттл
    Маленькая мисс Дулиттл скачать торрент
    Маленькая мисс Дулиттл смотреть онлайн
    Cкачать фильм Маленькая мисс Дулиттл бесплатно
    Маленькая мисс Дулиттл скачать торрент в хорошем качестве
    Маленькая мисс Дулиттл смотреть онлайн бесплатно в хорошем качестве


    Вы не можете начинать темы
    Вы не можете отвечать на сообщения
    Вы не можете редактировать свои сообщения
    Вы не можете удалять свои сообщения
    Вы не можете голосовать в опросах
    Вы не можете прикреплять файлы к сообщениям
    Вы можете скачивать файлы