новый адрес
Ссылка на приватное зеркало всего за 1$. Внимание количество ограничено!!!

iTunes

1+1

iTunes

мы

WEB-DL

1

iTunes

Чернобыль

iTunes

Ральф против интернета

Лицензия

ПШазам

Лицензия

Оно 2

Лицензия

30
pack

Вам бонус

ВАЖНО

!!Акция!!

Alien_RageХит недели

RePack

Resident Evil 21

ИГРА 18+

pack

RePack

jed

!!Акция!!

Alien_Rage

RePack

fifa19

RePack

Assassins Creed: Odyssey

RePack

NEED FOR SPEED™ PAYBACK

3 сезон

9 сезон

Бесстыжие 9 сезон

Все сериалы

все сериалы на PB.wtf

RePack

FAR CRY 5
Ребята, катастрофически не хватает 1900р. для оплаты серверов за Октябрь (всвязи с блокировками трафик упал в 3 раза), 1-2р., выручайте.
  

Оцепеневшие от страха / Aterrados (Демиан Рунья) [2018, Ужасы, WEB-DLRip-AVC] DUB [iTunes] pb.wtf

Оцепеневшие от страха через торрент pb.wtf

Раздают: 6 [ 95 KB/s ]
Размер: 1.41 GB | Добавлен: 1 год назад | Торрент скачан:808 раз
Скачать  

06-12-2018 15:03 Оцепеневшие от страха Скачать торрент  

Оцепеневшие от страха / Aterrados Год выпуска: 2018
Страна: Аргентина
Жанр: Ужасы
Продолжительность: 01:27:41
Перевод: Дублированный | iTunes
Субтитры: отсутствуют

Режиссер: Демиан Рунья

rating

В ролях:

Максимилиано Гионе, Норберто Гонсало, Эльвира Онетто, Агустин Риттано, Демиан Саломон, Джордж Л. Льюис, Джульета Валлина, Арьель Чаваррия, Уго Албрич, Наталия Сеньоралес и др.

Описание:

Леденящие душу жуткие события сотрясают пригородное местечко, где соседствуют три уютных домика. Неведомая и невидимая сила зверски убивает женщину на глазах мужа. Ночью у кровати его соседа появляется ужасный монстр. А мальчик из дома напротив, погибший под колесами автомобиля, возвращается с кладбища и садится за кухонный стол. Искать причину необъяснимых кошмаров берутся три специалиста по паранормальным явлениям и детектив из отдела по расследованию убийств.

Качество: WEB-DLRip-AVC
Формат: MKV

Видео: 1024x458 (2.25:1), 24,000 fps, x264 ~1 914 kbps avg, 0.170 bit/pixel
Аудио: 48 kHz, AC3 Dolby Digital, 3/2 (L,C,R,l,r) + LFE ch, ~384.00 kbps avg | RUS (iTunes)
скриншот  скриншот  скриншот  скриншот  

General
Полное имя : F:TorrentAterradosWEB-DLRip.avi
Формат : AVI
Формат/Информация : Audio Video Interleave
Профиль формата : OpenDML
Размер файла : 1.46 GiB
Продолжительность : 1 h 27 min
Общий поток : 2 377 kb/s
Программа кодирования : XviD4PSP 6.0 / 54.27.101

Video
Идентификатор : 0
Формат : MPEG-4 Visual
Профиль формата : Advanced Simple@L5
Настройки формата : BVOP2 / Custom Matrix
Параметр BVOP формата : 2
Параметр QPel формата : No
Параметр GMC формата : No warppoints
Параметр матрицы формата : Custom
Идентификатор кодека : XVID
Идентификатор кодека/Подсказка : XviD
Продолжительность : 1 h 27 min
Битрейт : 1 982 kb/s
Ширина : 720 pixels
Высота : 320 pixels
Соотношение сторон : 2.25:1
Частота кадров : 24.000 FPS
Цветовое пространство : YUV
Субдискретизация насыщенности : 4:2:0
Битовая глубина : 8 bits
Тип развёртки : Progressive
Метод сжатия : Lossy
Бит/(Пиксели*Кадры) : 0.358
Размер потока : 1.21 GiB (83%)
Библиотека кодирования : XviD 73

Audio
Идентификатор : 1
Формат : AC-3
Формат/Информация : Audio Coding 3
Идентификатор кодека : 2000
Продолжительность : 1 h 27 min
Вид битрейта : Constant
Битрейт : 384 kb/s
Каналы : 6 channels
Расположение каналов : Front: L C R, Side: L R, LFE
Частота : 48.0 kHz
Частота кадров : 31.250 FPS (1536 SPF)
Битовая глубина : 16 bits
Метод сжатия : Lossy
Размер потока : 241 MiB (16%)
Выравнивание : Aligned on interleaves
Продолжительность промежутка : 32 ms (0.77 video frame)

pb.wtf



Скачать Оцепеневшие от страха через торрент http://pic1.kartinco.top/images/12/c7le7.jpg Скачать фильм Оцепеневшие от страха через торрент бесплантно в хорошем качестве Описание: Леденящие душу жуткие события сотрясают пригородное местечко, где соседствуют три уютных домика. Неведомая и невидимая сила ... 9.6 10 20
Info! Золотая раздача, скачанное не засчитывается.
Торрент: Зарегистрирован [2018-12-11 08:27] · скачан: 808 раз
Статус: √ проверено
Размер: 1.41 GB
Как cкачать? Как скачать Оцепеневшие от страха через торрент | qTorrent

% Раздел Тема Автор DL S | L
Фильмы (WEB-DL 720p, 1080p) [ 3.07 GB ] Оцепеневшие от страха / Aterrados [2018 WEB-DL 1080p] bober100 Скачать
3 | 0
Фильмы 2018 [DVDrip, WEB-DLRip, HDrip] (DUB, MVO) [ 1.46 GB ] Оцепеневшие от страха / Aterrados [2018 WEB-DLRip] killermax2013 Скачать
5 | 0

28-11-2019 20:33  

Отключить всю рекламу на сайте

11-12-2018 16:49 Оцепеневшие от страха Скачать торрент  

Как жуть? Смотреть можно или нужно? Описание интригует.pb.wtf



11-12-2018 17:13 Оцепеневшие от страха Скачать торрент  

BardakadraB писал(а):

Как жуть? Смотреть можно или нужно? Описание интригует.

Посмотреть стоит. Однозначно!pb.wtf



12-12-2018 18:20 Оцепеневшие от страха Скачать торрент  

Снято дешево но со вкусом, мне как любителю мистики и ужасов фильм понравился.pb.wtf



18-12-2018 13:09 Оцепеневшие от страха Скачать торрент  

Название не соответствует содержимому.Фильм не страшный,но есть несколько мест жутковатых.Максимум на один раз.Если смотреть нечего,то этот фильм подойдет.pb.wtf



30-03-2019 18:55 Оцепеневшие от страха Скачать торрент  

Оцепеневшие от страха + пойдет киноpb.wtf



    Дорогой пользователь! Огромная просьба, поблагодарите релизера, оцените раздачу и оставьте свои комментарий, если Вы скачали Оцепеневшие от страха через торрент бесплатно! Внесите свою лепту в развитие PiratBit!
    Комментировать посты могут только пользователи прошедшие не сложную регистрацию
    Показать сообщения:    

    Оцепеневшие от страха через торрент
    Скачать бесплатно Оцепеневшие от страха
    Оцепеневшие от страха скачать торрент
    Оцепеневшие от страха смотреть онлайн
    Cкачать фильм Оцепеневшие от страха бесплатно
    Оцепеневшие от страха скачать торрент в хорошем качестве
    Оцепеневшие от страха смотреть онлайн бесплатно в хорошем качестве


    Вы не можете начинать темы
    Вы не можете отвечать на сообщения
    Вы не можете редактировать свои сообщения
    Вы не можете удалять свои сообщения
    Вы не можете голосовать в опросах
    Вы не можете прикреплять файлы к сообщениям
    Вы можете скачивать файлы