Ссылка на приватное зеркало нашего сайта всего за 1$. Внимание количество ограничено!!!

2 сезон

iTunes

1 сезон

1

2 сезон

2 сезон

iTunes

1 сезон

RePack

30

Ultimate

ВАЖНО

ИГРА 18+

pack

RePack

MK11
pack

Забери бонус

RePack

jed

!!Акция!!

Alien_Rage

RePack

fifa19

RePack

Assassins Creed: Odyssey

RePack

NEED FOR SPEED™ PAYBACK

4 сезон

9 сезон

Бесстыжие 9 сезон

Все сериалы

все сериалы на PB.wtf

RePack

FAR CRY 5
  

Граница / Frontier / Сезон: 3 / Серии: 1-6 из 6 (Брэд Пейтон, Джон Ватчер, Келли Макин) [2018, Приключения, драма, исторический, WEB-DL 720p] MVO (Jaskier) pb.wtf

Граница через торрент pb.wtf

Размер: 5.55 GB | Добавлен: 1 год 11 мес. назад | Торрент скачан:22 раза
Скачать  

06-12-2018 16:29 Граница Скачать торрент  

Граница / Frontier Год выпуска: 2018
Страна: США
Жанр: Приключения, драма, исторический
Продолжительность: 00:45:00
Перевод: Профессиональный (многоголосый закадровый) | Jaskier

Режиссёр: Брэд Пейтон, Джон Ватчер, Келли Макин

В ролях:

Диана Бентли, Бриэнн Хилл, Джейсон Момоа, Джессика Мэттен, Пол Ивэн Уилсон, Майкл Патрик, Уильям Белло, Пол Фауте, Эван Джонигкейт, Кристиан МакКэй, Лайла Портер Фоллоус

Описание:

Сериал расскажет о жестокой и кровавой борьбе за богатство и Влacть в торговле пушниной на просторах Северной Америки в XVIII веке. Бизнес приходится вести в очень сложных условиях жестокого противостояния коренных племён и понаехавших на континент европейцев.

rating

Качество: WEB-DL 720p
Формат: MKV

Видео: 1280x720 (16:9) | X264 | ~2260 kbps | 23.976 fps
Аудио 1: AC3, 48,0 КГц, 6 ch, 384 kbps - [RUS]
Аудио 2: AC3, 48,0 КГц, 6 ch, 384 kbps - [ENG]
Переведено и озвучено: студией Jaskier
Общее
Уникальный идентификатор                 : 258534078245475000690187712078072690783 (0xC27FDA2FEC5C65C082B2FCEC641AB85F)
Полное имя                               : G:\Jaskier\Frontier  Season 3 (WEB-DL l 720p l Jaskier)\Frontier.S03E01.WEB-DL.720p.Jaskier.mkv
Формат                                   : Matroska
Версия формата                           : Version 4 / Version 2
Размер файла                             : 999 Мбайт
Продолжительность                        : 46 м. 25 с.
Режим общего битрейта                    : Переменный
Общий поток                              : 3008 Кбит/сек
Дата кодирования                         : UTC 2018-12-06 13:55:14
Программа кодирования                    : mkvmerge v28.0.0 ('Voice In My Head') 64-bit
Библиотека кодирования                   : libebml v1.3.6 + libmatroska v1.4.9

Видео
Идентификатор                            : 1
Формат                                   : AVC
Формат/Информация                        : Advanced Video Codec
Профиль формата                          : Main@L3.1
Настройки формата                        : CABAC / 3 Ref Frames
Параметр CABAC формата                   : Да
Параметр RefFrames формата               : 3 кадра
Идентификатор кодека                     : V_MPEG4/ISO/AVC
Продолжительность                        : 46 м. 25 с.
Вид битрейта                             : Переменный
Битрейт                                  : 2260 Кбит/сек
Максимальный битрейт                     : 3390 Кбит/сек
Ширина                                   : 1280 пикселей
Высота                                   : 720 пикселей
Соотношение сторон                       : 16:9
Режим частоты кадров                     : Постоянный
Частота кадров                           : 23,976 (24000/1001) кадра/сек
Цветовое пространство                    : YUV
Субдискретизация насыщенности            : 4:2:0
Битовая глубина                          : 8 бит
Тип развёртки                            : Прогрессивная
Бит/(Пиксели*Кадры)                      : 0.102
Размер потока                            : 743 Мбайт (74%)
Библиотека кодирования                   : x264 core 148 r2715 7e75228
Настройки программы                      : cabac=1 / ref=3 / deblock=1:0:0 / analyse=0x1:0x111 / me=umh / subme=10 / psy=1 / psy_rd=1.00:0.00 / mixed_ref=1 / me_range=24 / chroma_me=1 / trellis=2 / 8x8dct=0 / cqm=0 / deadzone=21,11 / fast_pskip=1 / chroma_qp_offset=-2 / threads=8 / lookahead_threads=1 / sliced_threads=0 / nr=0 / decimate=1 / interlaced=0 / bluray_compat=0 / stitchable=1 / constrained_intra=0 / bframes=2 / b_pyramid=0 / b_adapt=2 / b_bias=0 / direct=3 / weightb=1 / open_gop=0 / weightp=2 / keyint=48 / keyint_min=25 / scenecut=0 / intra_refresh=0 / rc_lookahead=48 / rc=2pass / mbtree=1 / bitrate=2260 / ratetol=1.0 / qcomp=0.50 / qpmin=6 / qpmax=51 / qpstep=4 / cplxblur=20.0 / qblur=0.5 / vbv_maxrate=3390 / vbv_bufsize=4520 / nal_hrd=vbr / filler=0 / ip_ratio=1.40 / aq=1:1.00
Default                                  : Да
Forced                                   : Нет

Аудио #1
Идентификатор                            : 2
Формат                                   : AC-3
Формат/Информация                        : Audio Coding 3
Идентификатор кодека                     : A_AC3
Продолжительность                        : 46 м. 25 с.
Вид битрейта                             : Постоянный
Битрейт                                  : 384 Кбит/сек
Каналы                                   : 6 каналов
Расположение каналов                     : Front: L C R, Side: L R, LFE
Частота                                  : 48,0 КГц
Частота кадров                           : 31,250 кадров/сек (1536 SPF)
Битовая глубина                          : 16 бит
Метод сжатия                             : С потерями
Размер потока                            : 128 Мбайт (13%)
Язык                                     : Russian
ServiceKind/String                       : Complete Main
Default                                  : Да
Forced                                   : Нет

Аудио #2
Идентификатор                            : 3
Формат                                   : AC-3
Формат/Информация                        : Audio Coding 3
Идентификатор кодека                     : A_AC3
Продолжительность                        : 46 м. 25 с.
Вид битрейта                             : Постоянный
Битрейт                                  : 384 Кбит/сек
Каналы                                   : 6 каналов
Расположение каналов                     : Front: L C R, Side: L R, LFE
Частота                                  : 48,0 КГц
Частота кадров                           : 31,250 кадров/сек (1536 SPF)
Битовая глубина                          : 16 бит
Метод сжатия                             : С потерями
Размер потока                            : 128 Мбайт (13%)
Язык                                     : English
ServiceKind/String                       : Complete Main
Default                                  : Нет
Forced                                   : Нет
скриншот  скриншот  скриншот  
pb.wtf



Скачать Граница через торрент https://i107.fastpic.ru/big/2018/1206/33/9613aaa923d4b39a7c7669e5daa76133.png Скачать фильм Граница через торрент бесплантно в хорошем качестве Описание: Сериал расскажет о жестокой и кровавой борьбе за богатство и Влacть в торговле пушниной на просторах Северной Америки в XVIII ... 10 10 3
Торрент: Зарегистрирован [2018-12-06 16:29] · скачан: 22 раз
Статус: √ проверено
Размер: 5.55 GB
Как cкачать? Как скачать Граница через торрент | qTorrent

% Раздел Тема Автор DL S | L
Зарубежные сериалы [ 3.4 GB ] Граница / Frontier / Сезон: 3 / Серии: 1-6 из 6 [2018 исторический WEB-DLRip] MVO [Jaskier] bober100 Скачать
1 | 0
Зарубежные сериалы [ 9.05 GB ] Граница / Frontier / Сезон: 3 / Серии: 1-6 из 6 [2018 исторический WEB-DL 1080p] MVO [Jaskier] bober100 Скачать
1 | 0
Зарубежные сериалы [ 2.22 GB ] Граница / Frontier / Сезон: 3 / Серии 1-6 из 6 [2018 Историческая WEBRip] [MVO] killermax2013 Скачать
1 | 0
Зарубежные сериалы [ 12.15 GB ] Граница / Frontier / Сезон: 3 / Серии 1-6 из 6 [2018 Историческая WEBRip 1080p] [MVO] killermax2013 Скачать
1 | 0
Зарубежные сериалы [ 2.76 GB ] Граница / Frontier / Сезон: 3 / Серии 1-6 из 6 [2018 Историческая WEBRip] [MVO] killermax2013 Скачать
1 | 0
Зарубежные сериалы [ 9.18 GB ] Граница / Frontier / Сезон: 3 / Серии 1-6 из 6 [2018 Историческая WEBRip 1080p] [MVO] killermax2013 Скачать
1 | 0
Зарубежные сериалы [ 8.81 GB ] Рубеж / Граница / Frontier / Сезон: 3 / Серии: 1-6 из 6 [2018 исторический WEB-DL 1080p] [Sub Rus] killermax2013 Скачать
1 | 0

28-11-2019 20:33  

Отключить всю рекламу на сайте

    Дорогой пользователь! Огромная просьба, поблагодарите релизера, оцените раздачу и оставьте свои комментарий, если Вы скачали Граница через торрент бесплатно! Внесите свою лепту в развитие PiratBit!
    Комментировать посты могут только пользователи прошедшие не сложную регистрацию
    Показать сообщения:    

    Граница через торрент
    Скачать бесплатно Граница
    Граница скачать торрент
    Граница смотреть онлайн
    Cкачать фильм Граница бесплатно
    Граница скачать торрент в хорошем качестве
    Граница смотреть онлайн бесплатно в хорошем качестве


    Вы не можете начинать темы
    Вы не можете отвечать на сообщения
    Вы не можете редактировать свои сообщения
    Вы не можете удалять свои сообщения
    Вы не можете голосовать в опросах
    Вы не можете прикреплять файлы к сообщениям
    Вы можете скачивать файлы