Ссылка на приватное зеркало всего за 1$. Внимание количество ограничено!!!

OK

1+1

iTunes

мы

OK

1

WEB-DLRip

Джокер

Пифагор

Ведьмак / The Witcher сериал

iTunes

ПШазам

ОК

Оно 2

iTunes

30
pack

Вам бонус

ВАЖНО

!!Акция!!

Alien_RageХит недели

RePack

Resident Evil 21

ИГРА 18+

pack

RePack

jed

RePack

fifa19

RePack

Assassins Creed: Odyssey

RePack

NEED FOR SPEED™ PAYBACK

4 сезон

9 сезон

Бесстыжие 9 сезон

Все сериалы

все сериалы на PB.wtf

RePack

FAR CRY 5
  

Попытка / Tinker' (Сонни Марлер) [2018, Фантастика, драма, семейный, WEB-DL 720p] MVO ["Синема УС"] pb.wtf

Попытка через торрент pb.wtf

Размер: 3.73 GB | Добавлен: 1 год 1 мес. назад | Торрент скачан:32 раза
Скачать  

06-12-2018 17:06 Попытка Скачать торрент  

Попытка / Tinker'Год выпуска: 2018
Страна: США
Жанр: Фантастика, драма, семейный
Продолжительность: 01:39:47
Перевод: Любительский (многоголосый) | "Синема УС"
Субтитры: отсутствуют

Режиссер: Сонни Марлер

rating

В ролях:

Клейн Кроуфорд, Кристиан Кэйн, Уилмер Калдерон, Кольт Кроуфорд, Рэнди Смит, Венди Барон, Кейтлин Смит, Ленни Кроуфорд, Шале Лизетт Брэннан

Описание:

Фермер-отшельник находит секретный журнал своего покойного отца, который содержит планы машины, выробатывающей магнитное электричество. Подобное оборудование может изменить весь мир. Однако герой неожиданно становится опекуном своего одаренного 6-летнего племянника после кончины матери.

Качество: WEB-DL 720p
Формат: MKV

Видео: h.264,4 963 kb/s, 1280x536
Аудио#1: Русский, (AC3, 2 ch, 384 Кбит/с)
скриншот  скриншот  скриншот  

Общее
Уникальный идентификатор : 242282283172272938122362671292095319221 (0xB645DED38E82D68E88A3CDBD8B7ACCB5)
Полное имя : D:\Tinker.2018.P.WEB-DL.72Op_KOSHARA.mkv
Формат : Matroska
Версия формата : Version 2
Размер файла : 3,73 Гбайт
Продолжительность : 1 ч. 39 м.
Режим общего битрейта : Переменный
Общий поток : 5348 Кбит/сек
Дата кодирования : UTC 2018-12-06 13:18:41
Программа кодирования : mkvmerge v8.3.0 ('Over the Horizon') 64bit
Библиотека кодирования : libebml v1.3.1 + libmatroska v1.4.2

Видео
Идентификатор : 1
Формат : AVC
Формат/Информация : Advanced Video Codec
Профиль формата : High@L4.1
Параметр CABAC формата : Да
Параметр RefFrames формата : 4 кадра
Идентификатор кодека : V_MPEG4/ISO/AVC
Продолжительность : 1 ч. 39 м.
Вид битрейта : Переменный
Битрейт : 4963 Кбит/сек
Максимальный битрейт : 5500 Кбит/сек
Ширина : 1280 пикселей
Высота : 536 пикселей
Соотношение сторон : 2,40:1
Режим частоты кадров : Постоянный
Частота кадров : 23,976 (24000/1001) кадра/сек
Стандарт вещания : Component
Цветовое пространство : YUV
Субдискретизация насыщенности : 4:2:0
Битовая глубина : 8 бит
Тип развёртки : Прогрессивная
Бит/(Пиксели*Кадры) : 0.295
Размер потока : 3,39 Гбайт (91%)
Default : Да
Forced : Нет
Цветовой диапазон : Limited
Основные цвета : BT.709
Характеристики трансфера : BT.709
Коэффициенты матрицы : BT.709

Аудио
Идентификатор : 2
Формат : AC-3
Формат/Информация : Audio Coding 3
Расширение режима : CM (complete main)
Параметр Endianness формата : Big
Идентификатор кодека : A_AC3
Продолжительность : 1 ч. 39 м.
Вид битрейта : Постоянный
Битрейт : 384 Кбит/сек
Каналы : 2 канала
Расположение каналов : Front: L R
Частота : 48,0 КГц
Частота кадров : 31,250 кадров/сек (1536 spf)
Метод сжатия : С потерями
Размер потока : 274 Мбайт (7%)
Default : Да
Forced : Нет

pb.wtf



Скачать Попытка через торрент https://b.radikal.ru/b41/1812/00/9d3a19765e24.jpg Скачать фильм Попытка через торрент бесплантно в хорошем качестве Описание: Фермер-отшельник находит секретный журнал своего покойного отца, который содержит планы машины, выробатывающей магнитное ... 10 10 3
Торрент: Зарегистрирован [2018-12-06 17:06] · скачан: 32 раз
Статус: T временная
Размер: 3.73 GB
Как cкачать? Как скачать Попытка через торрент | qTorrent

28-11-2019 20:33  

Отключить всю рекламу на сайте

    Дорогой пользователь! Огромная просьба, поблагодарите релизера, оцените раздачу и оставьте свои комментарий, если Вы скачали Попытка через торрент бесплатно! Внесите свою лепту в развитие PiratBit!
    Комментировать посты могут только пользователи прошедшие не сложную регистрацию
    Показать сообщения:    

    Попытка через торрент
    Скачать бесплатно Попытка
    Попытка скачать торрент
    Попытка смотреть онлайн
    Cкачать фильм Попытка бесплатно
    Попытка скачать торрент в хорошем качестве
    Попытка смотреть онлайн бесплатно в хорошем качестве


    Вы не можете начинать темы
    Вы не можете отвечать на сообщения
    Вы не можете редактировать свои сообщения
    Вы не можете удалять свои сообщения
    Вы не можете голосовать в опросах
    Вы не можете прикреплять файлы к сообщениям
    Вы можете скачивать файлы