новый адрес
Мега распродажа FORZA HORIZON 4 ULTIMATE+ВСЕ DLC+ОНЛАЙН всего за 499р. 349 руб. (супер цена). Внимание количество ограничено!!!

iTunes

1+1

iTunes

мы

iTunes

1

iTunes

Чернобыль

iTunes

Ральф против интернета

Лицензия

ПШазам

Лицензия

Игра престолов

Лицензия

30
pack

ВАЖНО

!!Акция!!

Alien_RageХит недели

RePack

Resident Evil 21

ИГРА 18+

pack

RePack

Metro:Exodus

!!Акция!!

Alien_Rage

RePack

fifa19

RePack

Assassins Creed: Odyssey

RePack

NEED FOR SPEED™ PAYBACK

3 сезон

9 сезон

Бесстыжие 9 сезон

Все сериалы

все сериалы на PB.wtf

RePack

FAR CRY 5
Ребята, катастрофически не хватает 1900р. для оплаты серверов за Октябрь (всвязи с блокировками трафик упал в 3 раза), 1-2р., выручайте.
  

Деловые люди (Леонид Гайдай) [1962, СССР, драма, комедия, вестерн, HDDVDRip от AVP Studio] pb.wtf

Деловые люди через торрент pb.wtf

Размер: 1.09 GB | Добавлен: 11 мес. назад | Торрент скачан:21 раз
Скачать  

06-12-2018 17:16 Деловые люди Скачать торрент  

Деловые люди
Страна: СССР
Производство: Мосфильм

Жанр: драма, комедия, вестерн
Год выпуска: 1962
Продолжительность: 01:19:51

Перевод: Не требуется
Cубтитры: нет
Оригинальная аудиодорожка: русский

Режиссер: Леонид Гайдай

В ролях:
Владлен Паулус, Александр Шворин, Ростислав Плятт, Юрий Никулин, Георгий Вицин, Алексей Смирнов, Сергей Тихонов, Виктор Громов, Юрий Чулюкин, Владимир Пицек, Виктор Уральский, Лев Лобов, Георгий Милляр...
Об актёрах подробней

Описание:
Фильм поставлен по новеллам знаменитого американского писателя О.Генри: "Дороги, которые мы выбираем", "Родственные души", "Вождь краснокожих".
На долю последней новеллы выпала, пожалуй, наибольшая популярность - столь уморительны оказались злоключения двух незадачливых похитителей юного сорванца.

Источник: HDDVD9 R5
Качество видео: HDDVDRip
Формат видео: AVI

Видео: 720х544 (4:3), 25 fps, XviD ~ 1495 kbps avg, 0.153 bit/pixel
Аудио: 48 kHz, Dolby Digital AC3 5.1, 448 kbps

Раздача от:
Общее
Полное имя : Delovye.lyudi.1962.HDDVDRip_[New-team]_by_AVP_Studio.avi
Формат : AVI
Формат/Информация : Audio Video Interleave
Размер файла : 1,09 Гбайт
Продолжительность : 1 ч. 19 м.
Общий поток : 1952 Кбит/сек
Программа кодирования : VirtualDubMod 1.5.10.3 | www.virtualdub-fr.org || (build 2550/release)
Библиотека кодирования : VirtualDubMod build 2550/release

Видео
Идентификатор : 0
Формат : MPEG-4 Visual
Профиль формата : Advanced Simple@L5
Настройки формата : BVOP1 / Custom Matrix
Параметр BVOP формата : 1
Параметр QPel формата : Нет
Параметр GMC формата : Без точки перехода
Параметр матрицы формата : Выборочная
Идентификатор кодека : XVID
Идентификатор кодека/Подсказка : XviD
Продолжительность : 1 ч. 19 м.
Битрейт : 1495 Кбит/сек
Ширина : 720 пикселей
Высота : 544 пикселя
Соотношение сторон : 4:3
Частота кадров : 25,000 кадров/сек
Цветовое пространство : YUV
Субдискретизация насыщенности : 4:2:0
Битовая глубина : 8 бит
Тип развёртки : Прогрессивная
Метод сжатия : С потерями
Бит/(Пиксели*Кадры) : 0.153
Размер потока : 854 Мбайт (77%)
Библиотека кодирования : XviD 73

Аудио
Идентификатор : 1
Формат : AC-3
Формат/Информация : Audio Coding 3
Коммерческое название : Dolby Digital
Идентификатор кодека : 2000
Продолжительность : 1 ч. 19 м.
Вид битрейта : Постоянный
Битрейт : 448 Кбит/сек
Каналы : 6 каналов
Channel layout : L R C LFE Ls Rs
Частота : 48,0 КГц
Частота кадров : 31,250 кадров/сек (1536 SPF)
Битовая глубина : 16 бит
Метод сжатия : С потерями
Размер потока : 256 Мбайт (23%)
Выравнивание : Разделение по промежуткам
Продолжительность промежутка : 40 мс. (1,00 видеокадр)
Время предзагрузки промежутка : 500 мс
pb.wtf



Скачать Деловые люди через торрент http://picplus.ru/img/1812/06/89ac8f68.png Скачать фильм Деловые люди через торрент бесплантно в хорошем качестве Описание:Фильм поставлен по новеллам знаменитого американского писателя О.Генри: "Дороги, которые мы выбираем", "Родственные души", "Вождь ... 10 10 1
Info! Золотая раздача, скачанное не засчитывается.
Торрент: Зарегистрирован [2018-12-06 17:16] · скачан: 21 раз
Статус: √ проверено
Размер: 1.09 GB
Как cкачать? Как скачать Деловые люди через торрент | qTorrent

% Раздел Тема Автор DL S | L
Кино СССР [ 1.46 GB ] Деловые люди [1962 СССР HDDVDRip-AVC от AVP Studio] AVP Studio Скачать
4 | 1
Кино СССР [ 1.37 GB ] Деловые люди [1963 DVDRip] Оригинал wekotila Скачать
1 | 0


>> Регистрируемся здесь <<






Отзывы и комментарии о схеме читаем и пишем здесь: ---> Отзывы и комментарии о схеме

Новые благодарочки в телеграм довольных пользователей:
скриншот   скриншот   скриншот   скриншот   скриншот
    Дорогой пользователь! Огромная просьба, поблагодарите релизера, оцените раздачу и оставьте свои комментарий, если Вы скачали Деловые люди через торрент бесплатно! Внесите свою лепту в развитие PiratBit!
    Комментировать посты могут только пользователи прошедшие не сложную регистрацию
    Показать сообщения:    

    Деловые люди через торрент
    Скачать бесплатно Деловые люди
    Деловые люди скачать торрент
    Деловые люди смотреть онлайн
    Cкачать фильм Деловые люди бесплатно
    Деловые люди скачать торрент в хорошем качестве
    Деловые люди смотреть онлайн бесплатно в хорошем качестве


    Вы не можете начинать темы
    Вы не можете отвечать на сообщения
    Вы не можете редактировать свои сообщения
    Вы не можете удалять свои сообщения
    Вы не можете голосовать в опросах
    Вы не можете прикреплять файлы к сообщениям
    Вы можете скачивать файлы