Ребята, если до конца года каждый наш пользователь пожертвует хотя бы 10 рублей, нам хватит денег оплатить все наши расходы.

iTunes

iTunes

Миссия невыполнима: Последствия

iTunes

Поиск

4 сезон

дом

MVO

venom

iTunes

Багровая мята

iTunes

Проклятие монахини

iTunes

Человек на Луне

ИГРА 18+

pack

RePack

Battlefield V Хит недели

RePack

Assassins Creed: Odyssey
pack

RePack

Darksiders 3

iTunes 4K

Миссия невыполнима: Последствия

RePack

fifa19

!!Акция!!

Alien_RageХит недели

RePack

NEED FOR SPEED™ PAYBACK

SATRip

9 сезон

Бесстыжие 9 сезон

Все сериалы

все сериалы на PB.wtf

iTunes

Мэнди

RePack

FAR CRY 5
  

Патрик / Patrick (Мэнди Флетчер) [2018, Комедия, WEB-DL 1080p] [DUB] [iTunes]

Патрик через торрент

Раздают: 16 [ 197 KB/s ]
Размер: 3.54 GB | Добавлен: 12 д. назад | Торрент скачан:157 раз
Скачать  

06-12-2018 17:21 Патрик Скачать торрент  

Патрик / Patrick Информация о фильме

Год выхода: 2018
Жанр: Комедия
Страна: Великобритания, Wagging Tale Productions, BondIt, Fred Films
Продолжительность: 01:34:22
Перевод: Профессиональный (дубляж) | iTunes

Режиссер: Мэнди Флетчер

В ролях: Эд Скрейн, Том Беннетт, Скотт Чэмберс, Дженнифер Сондерс, Эмилия Джонс, Питер Дэвисон, Бернард Криббинс, Джемма Джонс, Шери Лунги, Эмили Атак

О фильме:
Сара никак не может привести свою жизнь в порядок: карьера не складывается, личная жизнь полна разочарований, а родители относятся с пренебрежением. Последнее, что ей сейчас нужно - это избалованный и капризный мопс по имени Патрик, который буквально врывается в жизнь бедной девушки. Но если люди не смогли стать для Сары друзьями, может, это получится у собаки?

rating

Файл

Качество: WEB-DL 1080p
Формат: MKV
Кодек: MPEG-4 AVC
Видео: MPEG-4 AVC, 4594 Кбит/с, 1920x804, 23.976 кадр/с
Аудио: AC3, 48 kHz, 6 ch, ~384.00 kbps avg | iTunes
Аудио: AC3, 48 kHz, 6 ch, ~384.00 kbps avg | английский | Оригинал
Субтитры: английские

Цитата:

Автор релиза - ylnian
Исходник видео и оригинальной дорожки - Patrick.2018.1080p.WEB-DL.H264.AC3-EVO
Исходник русской дорожки - WEB-DL (1080p) iTunes RUS - выкуплен ylnian
Есть главы - 10 шт.

Перевод: Профессиональный (дублированный) - iTunes

Рекламы нет!

Общее
Уникальный идентификатор : 22847461739969093772929495601769760491 (0x113042D59A657F9D1A45818D467646EB)
Полное имя : D:\Patrick.2018.WEBDL.1080p-ylnian.mkv
Формат : Matroska
Версия формата : Version 4
Размер файла : 3,54 Гбайт
Продолжительность : 1 ч. 34 м.
Общий поток : 5364 Кбит/сек
Название фильма : Patrick.2018.WEBDL.1080p-ylnian
Дата кодирования : UTC 2018-12-06 16:51:47
Программа кодирования : mkvmerge v29.0.0 ('Like It Or Not') 64-bit
Библиотека кодирования : libebml v1.3.6 + libmatroska v1.4.9

Видео
Идентификатор : 1
Формат : AVC
Формат/Информация : Advanced Video Codec
Профиль формата : High@L4
Настройки формата : CABAC / 5 Ref Frames
Параметр CABAC формата : Да
Параметр RefFrames формата : 5 кадров
Идентификатор кодека : V_MPEG4/ISO/AVC
Продолжительность : 1 ч. 34 м.
Битрейт : 4594 Кбит/сек
Ширина : 1920 пикселей
Высота : 804 пикселя
Соотношение сторон : 2,40:1
Режим частоты кадров : Постоянный
Частота кадров : 23,976 (23976/1000) кадра/сек
Цветовое пространство : YUV
Субдискретизация насыщенности : 4:2:0
Битовая глубина : 8 бит
Тип развёртки : Прогрессивная
Бит/(Пиксели*Кадры) : 0.124
Размер потока : 3,03 Гбайт (86%)
Заголовок : Patrick.2018.1080p.WEB-DL.H264.AC3-EVO
Язык : English
Default : Да
Forced : Да
Цветовой диапазон : Limited
Основные цвета : BT.709
Характеристики трансфера : BT.709
Коэффициенты матрицы : BT.709

Аудио #1
Идентификатор : 2
Формат : AC-3
Формат/Информация : Audio Coding 3
Коммерческое название : Dolby Digital
Идентификатор кодека : A_AC3
Продолжительность : 1 ч. 34 м.
Вид битрейта : Постоянный
Битрейт : 384 Кбит/сек
Каналы : 6 каналов
Channel layout : L R C LFE Ls Rs
Частота : 48,0 КГц
Частота кадров : 31,250 кадров/сек (1536 SPF)
Битовая глубина : 16 бит
Метод сжатия : С потерями
Задержка видео : -42 мс.
Размер потока : 259 Мбайт (7%)
Заголовок : DUB (iTunes)
Язык : Russian
ServiceKind/String : Complete Main
Default : Да
Forced : Да

Аудио #2
Идентификатор : 3
Формат : AC-3
Формат/Информация : Audio Coding 3
Коммерческое название : Dolby Digital
Идентификатор кодека : A_AC3
Продолжительность : 1 ч. 34 м.
Вид битрейта : Постоянный
Битрейт : 384 Кбит/сек
Каналы : 6 каналов
Channel layout : L R C LFE Ls Rs
Частота : 48,0 КГц
Частота кадров : 31,250 кадров/сек (1536 SPF)
Битовая глубина : 16 бит
Метод сжатия : С потерями
Задержка видео : -42 мс.
Размер потока : 259 Мбайт (7%)
Язык : English
ServiceKind/String : Complete Main
Default : Нет
Forced : Нет

Текст
Идентификатор : 4
Формат : UTF-8
Идентификатор кодека : S_TEXT/UTF8
Идентификатор кодека/Информация : UTF-8 Plain Text
Продолжительность : 1 ч. 29 м.
Битрейт : 62 бит/сек
ElementCount : 1368
Размер потока : 41,3 Кбайт (0%)
Язык : English
Default : Нет
Forced : Нет

Меню
00:00:00.000 : en:1
00:09:19.000 : en:2
00:20:14.000 : en:3
00:29:36.000 : en:4
00:40:49.000 : en:5
00:49:01.000 : en:6
01:00:37.000 : en:7
01:09:55.000 : en:8
01:20:30.000 : en:9
01:28:08.000 : en:10
скриншот  скриншот  скриншот  



Скачать Патрик через торрент https://a.radikal.ru/a10/1811/8c/1b33f4429eaa.jpg Скачать фильм Патрик через торрент бесплантно в хорошем качестве О фильме:Сара никак не может привести свою жизнь в порядок: карьера не складывается, личная жизнь полна разочарований, а родители относятся ... 8.5 10 6
Торрент: Зарегистрирован [2018-12-06 17:21] · скачан: 157 раз
Статус: √ проверено
Размер: 3.54 GB
Как cкачать? Как скачать Патрик через торрент | qTorrent

% Раздел Тема Автор DL S | L
Фильмы 2018 [DVDrip, WEB-DLRip, HDrip] (DUB, MVO) [ 1.72 GB ] Патрик / Patrick [2018 WEB-DLRip-AVC] bober100 Скачать
20 | 0
Фильмы 2018 [DVDrip, WEB-DLRip, HDrip] (DUB, MVO) [ 1.46 GB ] Патрик / Patrick [2018 WEB-DLRip] bober100 Скачать
19 | 0
Зарубежные сериалы [ 10.25 GB ] Патрик Мелроуз / Patrick Melrose / Сезон: 1 / Серии: 1-5 из 5 [2018 WEB-DL-HEVC 1080p ] MVO [Amedia] bober100 Скачать
2 | 0
Зарубежные сериалы [ 5.17 GB ] Патрик Мелроуз / Patrick Melrose / Сезон: 1 / Серии: 1-5 из 5 [2018 WEB-DL 720p] DVO [SunshineStudio] bober100 Скачать
1 | 0
Зарубежные сериалы [ 3.47 GB ] Патрик Мелроуз / Patrick Melrose / Сезон: 1 / Серии: 1-5 из 5 [2018 WEB-DLRip] DVO [SunshineStudio] bober100 Скачать
1 | 2
Зарубежные сериалы [ 10.47 GB ] Патрик Мелроуз / Patrick Melrose / Сезон: 1 / Серии: 1-5 [2018 WEB-DL 720p] 4x[MVO] killermax2013 Скачать
3 | 0
Зарубежные сериалы [ 7.97 GB ] Патрик Мелроуз / Patrick Melrose / Сезон: 1 / Серии: 1-5 [2018 WEB-DL 720p] [MVO] killermax2013 Скачать
1 | 0


>> Регистрируемся здесь <<






Отзывы и комментарии о схеме читаем и пишем здесь: ---> Отзывы и комментарии о схеме

Новые благодарочки в телеграм довольных пользователей:
скриншот   скриншот   скриншот   скриншот   скриншот
    Дорогой пользователь! Огромная просьба, поблагодарите релизера, оцените раздачу и оставьте свои комментарий, если Вы скачали Патрик через торрент бесплатно! Внесите свою лепту в развитие PiratBit!
    Комментировать посты могут только пользователи прошедшие не сложную регистрацию
    Показать сообщения:    

    Патрик через торрент
    Скачать бесплатно Патрик
    Патрик скачать торрент
    Патрик смотреть онлайн
    Cкачать фильм Патрик бесплатно
    Патрик скачать торрент в хорошем качестве
    Патрик смотреть онлайн бесплатно в хорошем качестве


    Вы не можете начинать темы
    Вы не можете отвечать на сообщения
    Вы не можете редактировать свои сообщения
    Вы не можете удалять свои сообщения
    Вы не можете голосовать в опросах
    Вы не можете прикреплять файлы к сообщениям
    Вы можете скачивать файлы