Ребята, если до конца года каждый наш пользователь пожертвует хотя бы 10 рублей, нам хватит денег оплатить все наши расходы.

iTunes

iTunes

Миссия невыполнима: Последствия

iTunes

Поиск

4 сезон

дом

MVO

venom

iTunes

Багровая мята

iTunes

Проклятие монахини

iTunes

Человек на Луне Хит недели

ИГРА 18+

pack

RePack

Battlefield V Хит недели

RePack

Assassins Creed: Odyssey
pack

RePack

Darksiders 3

iTunes 4K

Миссия невыполнима: Последствия

RePack

fifa19

!!Акция!!

Alien_RageХит недели

RePack

NEED FOR SPEED™ PAYBACK

SATRip

9 сезон

Бесстыжие 9 сезон

Все сериалы

все сериалы на PB.wtf

iTunes

Мэнди

RePack

FAR CRY 5
  

База "Берлин" / Berlin Station / Сезон: 3 / Серии: 1-2 из 9 (Джузеппе Капотонди, Джон Дэвид Коулз, Михаэль Р. Роскам) [2018, триллер, WEBRip] [MVO] (Jaskier)

База "Берлин" через торрент

Раздают: 1 [ 0 KB/s ]
Размер: 1.25 GB | Добавлен: 1 д. 5 ч. назад | Торрент скачан:5 раз
Скачать  

06-12-2018 17:38 База "Берлин" Скачать торрент  

База "Берлин" / Berlin Station

Год выпуска: 2018
Страна: США, Германия
Жанр: Триллер
Продолжительность: ~ 00:50:00

Перевод: Профессиональный (многоголосый закадровый) | Jaskier

Режиссёр: Джузеппе Капотонди, Джон Дэвид Коулз, Михаэль Р. Роскам

В ролях: Ричард Армитедж, Ричард Диллэйн, Мишель Форбс, Рис Иванс, Эрл Винсент Шервуд II, Ричард Дженкинс, Лиленд Орсер, Роджер Рингроуз, Бернхард Шюц, Тэмлин Томита

Описание: Главный герой сериала Даниэль Мейер, недавно получивший должность следователя, прибывает в резидентуру ЦРУ в Берлине, чтобы раскрыть источник утечки, который снабжает информацией доносчика. Под руководством опытного следователя-ветерана Гектора ДеЖана — упрямого агента с мрачным очарованием, который работает на шефа резидентуры Стивена Фроста — Дэниел учится правилам игры в суровом мире профессиональных агентов, полном опасностей, предательства, моральных компромиссов.

rating

Качество: WEBRip
Формат: AVI
Видео: XviD, ~ 1400 kbps, 720x400, 23.976 fps
Аудио 1: MP3, 48,0 КГц, 2 ch, 128 kbps - RUS
Аудио 2: MP3, 48,0 КГц, 2 ch, 128 kbps - ENG
Субтитры: отсутствуют
Общее
Полное имя : V:\1ONGOING\Berlin.Station. Season 3 (WEB-DL l 400p l JASKiER)\Berlin.Station.S03E01.400p.Jaskier.avi
Формат : AVI
Формат/Информация : Audio Video Interleave
Размер файла : 652 Мбайт
Продолжительность : 54 м.
Общий поток : 1670 Кбит/сек
Программа кодирования : VirtualDubMod 1.5.10.3 | www.virtualdub-fr.org || (build 2550/release)
Библиотека кодирования : VirtualDubMod build 2550/release

Видео
Идентификатор : 0
Формат : MPEG-4 Visual
Профиль формата : Advanced Simple@L5
Параметр BVOP формата : 2
Параметр QPel формата : Нет
Параметр GMC формата : Без точки перехода
Параметр матрицы формата : Выборочная
Идентификатор кодека : XVID
Идентификатор кодека/Подсказка : XviD
Продолжительность : 54 м.
Битрейт : 1400 Кбит/сек
Ширина : 720 пикселей
Высота : 400 пикселей
Соотношение сторон : 16:9
Частота кадров : 23,976 (23976/1000) кадра/сек
Цветовое пространство : YUV
Субдискретизация насыщенности : 4:2:0
Битовая глубина : 8 бит
Тип развёртки : Прогрессивная
Метод сжатия : С потерями
Бит/(Пиксели*Кадры) : 0.203
Размер потока : 546 Мбайт (84%)
Библиотека кодирования : XviD 73

Аудио #1
Идентификатор : 1
Формат : MPEG Audio
Версия формата : Version 1
Профиль формата : Layer 3
Режим : Joint stereo
Расширение режима : MS Stereo
Идентификатор кодека : 55
Идентификатор кодека/Подсказка : MP3
Продолжительность : 54 м.
Вид битрейта : Постоянный
Битрейт : 128 Кбит/сек
Каналы : 2 канала
Частота : 48,0 КГц
Метод сжатия : С потерями
Размер потока : 50,0 Мбайт (8%)
Выравнивание : Соединение по промежуткам
Продолжительность промежутка : 42 мс. (1,00 видеокадр)
Время предзагрузки промежутка : 504 мс.

Аудио #2
Идентификатор : 2
Формат : MPEG Audio
Версия формата : Version 1
Профиль формата : Layer 3
Режим : Joint stereo
Расширение режима : MS Stereo
Идентификатор кодека : 55
Идентификатор кодека/Подсказка : MP3
Продолжительность : 54 м.
Вид битрейта : Постоянный
Битрейт : 128 Кбит/сек
Каналы : 2 канала
Частота : 48,0 КГц
Метод сжатия : С потерями
Размер потока : 50,0 Мбайт (8%)
Выравнивание : Соединение по промежуткам
Продолжительность промежутка : 42 мс. (1,00 видеокадр)
Время предзагрузки промежутка : 504 мс.
скриншот  скриншот  скриншот  
Когда раздача ведётся путём добавления новых серий, при каждом добавлении создётся новый торрент. Чтобы начать докачку новой серии, пользователям необходимо сделать следующее:
(1) остановить скачивание,
(2) удалить старый торрент у себя из клиента (старые серии удалять не надо),
(3) скачать новый торрент и запустить его у себя в клиенте вместо старого, при этом указать клиенту путь в старую папку, куда и должно происходить скачивание новых серий.
Ваш клиент при этом должен произвести хеширование (проверку) старой папки (если не производит сам - помогите ему сделать это), и будет докачивать только те серии, которых у вас ещё нет. Старые серии при этом не удаляются, а продолжают раздаваться!
Eсли вы уже удалили старые серии, то предотвратить повторную закачку старых серий можно, отжав галочку в соответсвующих местах при запуске нового торрента. По возможности, желательно не удалять старые серии как можно дольше, чтобы релизёр не столько продолжал раздавать старые серии, а смог сконцентрироваться на новых.



Скачать База "Берлин" через торрент https://i107.fastpic.ru/big/2018/1206/b9/f138ed740f3460884b75c96203765db9.png Скачать фильм База "Берлин" через торрент бесплантно в хорошем качестве Описание: Главный герой сериала Даниэль Мейер, недавно получивший должность следователя, прибывает в резидентуру ЦРУ в Берлине, чтобы ... 6.5 10 2
Торрент: Зарегистрирован [2018-12-15 20:23] · скачан: 5 раз
Статус: √ проверено
Размер: 1.25 GB
Как cкачать? Как скачать База "Берлин" через торрент | qTorrent


>> Регистрируемся здесь <<






Отзывы и комментарии о схеме читаем и пишем здесь: ---> Отзывы и комментарии о схеме

Новые благодарочки в телеграм довольных пользователей:
скриншот   скриншот   скриншот   скриншот   скриншот
    Дорогой пользователь! Огромная просьба, поблагодарите релизера, оцените раздачу и оставьте свои комментарий, если Вы скачали База "Берлин" через торрент бесплатно! Внесите свою лепту в развитие PiratBit!
    Комментировать посты могут только пользователи прошедшие не сложную регистрацию
    Показать сообщения:    

    База "Берлин" через торрент
    Скачать бесплатно База "Берлин"
    База "Берлин" скачать торрент
    База "Берлин" смотреть онлайн
    Cкачать фильм База "Берлин" бесплатно
    База "Берлин" скачать торрент в хорошем качестве
    База "Берлин" смотреть онлайн бесплатно в хорошем качестве


    Вы не можете начинать темы
    Вы не можете отвечать на сообщения
    Вы не можете редактировать свои сообщения
    Вы не можете удалять свои сообщения
    Вы не можете голосовать в опросах
    Вы не можете прикреплять файлы к сообщениям
    Вы можете скачивать файлы