Ребята, если до конца года каждый наш пользователь пожертвует хотя бы 10 рублей, нам хватит денег оплатить все наши расходы.

iTunes

iTunes

Миссия невыполнима: Последствия

iTunes

Поиск

4 сезон

дом

MVO

venom

iTunes

Багровая мята

iTunes

Проклятие монахини

iTunes

Человек на Луне

ИГРА 18+

pack

RePack

Battlefield V Хит недели

RePack

Assassins Creed: Odyssey
pack

RePack

Darksiders 3

iTunes 4K

Миссия невыполнима: Последствия

RePack

fifa19

!!Акция!!

Alien_RageХит недели

RePack

NEED FOR SPEED™ PAYBACK

SATRip

9 сезон

Бесстыжие 9 сезон

Все сериалы

все сериалы на PB.wtf

iTunes

Мэнди

RePack

FAR CRY 5
  

База "Берлин" / Berlin Station / Сезон: 2 / Серии: 1-9 из 9 (Джузеппе Капотонди, Джон Дэвид Коулз, Михаэль Р. Роскам) [2017, Триллер, WEBRip] [MVO] (Jaskier)

База "Берлин" через торрент

Раздают: 1 [ 0 KB/s ]
Размер: 5.72 GB | Добавлен: 12 д. назад | Торрент скачан:6 раз
Скачать  

06-12-2018 17:48 База "Берлин" Скачать торрент  

База "Берлин" / Berlin Station

Год выпуска: 2017
Страна: США, Германия
Жанр: Триллер
Продолжительность: ~ 00:50:00

Перевод: Профессиональный (многоголосый закадровый) | Jaskier

Режиссёр: Джузеппе Капотонди, Джон Дэвид Коулз, Михаэль Р. Роскам

В ролях: Ричард Армитедж, Ричард Диллэйн, Мишель Форбс, Рис Иванс, Эрл Винсент Шервуд II, Ричард Дженкинс, Лиленд Орсер, Роджер Рингроуз, Бернхард Шюц, Тэмлин Томита

Описание: Главный герой сериала Даниэль Мейер, недавно получивший должность следователя, прибывает в резидентуру ЦРУ в Берлине, чтобы раскрыть источник утечки, который снабжает информацией доносчика. Под руководством опытного следователя-ветерана Гектора ДеЖана — упрямого агента с мрачным очарованием, который работает на шефа резидентуры Стивена Фроста — Дэниел учится правилам игры в суровом мире профессиональных агентов, полном опасностей, предательства, моральных компромиссов.

rating

Качество: WEBRip
Формат: AVI
Видео: XviD, ~ 1400 kbps, 720x400, 23.976 fps
Аудио 1: MP3, 48,0 КГц, 2 ch, 128 kbps - RUS
Аудио 2: MP3, 48,0 КГц, 2 ch, 128 kbps - ENG
Субтитры: отсутствуют
Общее
Формат : AVI
Формат/Информация : Audio Video Interleave
Размер файла : 650 Мбайт
Продолжительность : 51 м.
Общий поток : 1750 Кбит/сек
Программа кодирования : VirtualDubMod 1.5.10.3 | www.virtualdub-fr.org || (build 2550/release)
Библиотека кодирования : VirtualDubMod build 2550/release

Видео
Идентификатор : 0
Формат : MPEG-4 Visual
Профиль формата : Advanced Simple@L5
Параметр BVOP формата : 1
Параметр QPel формата : Нет
Параметр GMC формата : Без точки перехода
Параметр матрицы формата : Default (MPEG)
Идентификатор кодека : XVID
Идентификатор кодека/Подсказка : XviD
Продолжительность : 51 м.
Битрейт : 1480 Кбит/сек
Ширина : 720 пикселей
Высота : 400 пикселей
Соотношение сторон : 16:9
Частота кадров : 23,976 (23976/1000) кадра/сек
Цветовое пространство : YUV
Субдискретизация насыщенности : 4:2:0
Битовая глубина : 8 бит
Тип развёртки : Прогрессивная
Метод сжатия : С потерями
Бит/(Пиксели*Кадры) : 0.214
Размер потока : 550 Мбайт (85%)
Библиотека кодирования : XviD 73

Аудио #1
Идентификатор : 1
Формат : MPEG Audio
Версия формата : Version 1
Профиль формата : Layer 3
Режим : Joint stereo
Расширение режима : MS Stereo
Идентификатор кодека : 55
Идентификатор кодека/Подсказка : MP3
Продолжительность : 51 м.
Вид битрейта : Постоянный
Битрейт : 128 Кбит/сек
Каналы : 2 канала
Частота : 48,0 КГц
Метод сжатия : С потерями
Размер потока : 47,6 Мбайт (7%)
Выравнивание : Соединение по промежуткам
Продолжительность промежутка : 42 мс. (1,00 видеокадр)
Время предзагрузки промежутка : 504 мс.

Аудио #2
Идентификатор : 2
Формат : MPEG Audio
Версия формата : Version 1
Профиль формата : Layer 3
Режим : Joint stereo
Расширение режима : MS Stereo
Идентификатор кодека : 55
Идентификатор кодека/Подсказка : MP3
Продолжительность : 51 м.
Вид битрейта : Постоянный
Битрейт : 128 Кбит/сек
Каналы : 2 канала
Частота : 48,0 КГц
Метод сжатия : С потерями
Размер потока : 47,6 Мбайт (7%)
Выравнивание : Соединение по промежуткам
Продолжительность промежутка : 42 мс. (1,00 видеокадр)
Время предзагрузки промежутка : 504 мс.
скриншот  скриншот  скриншот  



Скачать База "Берлин" через торрент http://i99.fastpic.ru/big/2017/1230/0e/c49720fb14e3426ab82d9c7f2c74540e.png Скачать фильм База "Берлин" через торрент бесплантно в хорошем качестве Описание: Главный герой сериала Даниэль Мейер, недавно получивший должность следователя, прибывает в резидентуру ЦРУ в Берлине, чтобы ... 8 10 1
Торрент: Зарегистрирован [2018-12-06 17:48] · скачан: 6 раз
Статус: √ проверено
Размер: 5.72 GB
Как cкачать? Как скачать База "Берлин" через торрент | qTorrent


>> Регистрируемся здесь <<






Отзывы и комментарии о схеме читаем и пишем здесь: ---> Отзывы и комментарии о схеме

Новые благодарочки в телеграм довольных пользователей:
скриншот   скриншот   скриншот   скриншот   скриншот
    Дорогой пользователь! Огромная просьба, поблагодарите релизера, оцените раздачу и оставьте свои комментарий, если Вы скачали База "Берлин" через торрент бесплатно! Внесите свою лепту в развитие PiratBit!
    Комментировать посты могут только пользователи прошедшие не сложную регистрацию
    Показать сообщения:    

    База "Берлин" через торрент
    Скачать бесплатно База "Берлин"
    База "Берлин" скачать торрент
    База "Берлин" смотреть онлайн
    Cкачать фильм База "Берлин" бесплатно
    База "Берлин" скачать торрент в хорошем качестве
    База "Берлин" смотреть онлайн бесплатно в хорошем качестве


    Вы не можете начинать темы
    Вы не можете отвечать на сообщения
    Вы не можете редактировать свои сообщения
    Вы не можете удалять свои сообщения
    Вы не можете голосовать в опросах
    Вы не можете прикреплять файлы к сообщениям
    Вы можете скачивать файлы