новый адрес
Ссылка на приватное зеркало всего за 1$. Внимание количество ограничено!!!

iTunes

1+1

iTunes

мы

iTunes

1

iTunes

Чернобыль

iTunes

Ральф против интернета

Лицензия

ПШазам

Лицензия

Оно 2

Лицензия

30
pack

Вам бонус

ВАЖНО

!!Акция!!

Alien_RageХит недели

RePack

Resident Evil 21

ИГРА 18+

pack

RePack

jed

!!Акция!!

Alien_Rage

RePack

fifa19

RePack

Assassins Creed: Odyssey

RePack

NEED FOR SPEED™ PAYBACK

3 сезон

9 сезон

Бесстыжие 9 сезон

Все сериалы

все сериалы на PB.wtf

RePack

FAR CRY 5
Ребята, катастрофически не хватает 1900р. для оплаты серверов за Октябрь (всвязи с блокировками трафик упал в 3 раза), 1-2р., выручайте.
  

СуперБобровы. Народные мстители (Дмитрий Дьяченко) [2018, комедия, семейный, WEB-DLRip] [iTunes] pb.wtf

СуперБобровы. Народные мстители через торрент pb.wtf

Размер: 745 MB | Добавлен: 11 мес. назад | Торрент скачан:588 раз
Скачать  

06-12-2018 17:56 СуперБобровы. Народные мстители Скачать торрент  

СуперБобровы. Народные мстители
Год выпуска: 2018
Страна: Россия
Жанр: комедия, семейный
Продолжительность: 01:29:12
Перевод: Не требуется | iTunes
Субтитры: отсутствуют

Режиссер: Дмитрий Дьяченко



В ролях:

Павел Деревянко, Роман Мадянов, Владимир Толоконников, Оксана Акиньшина, Ирина Пегова, Даниил Вахрушев, Елена Валюшкина, Роман Курцын, Стас Оксаний, Владимир Паршенков

Описание:

Действие картины начинается в Таиланде, где семья Бобровых скрылась от правосудия. Теперь им приходится выступать в цирке-шапито, демонстрируя туристам свои суперспособности. Быть «цирковыми обезьянками» семейству явно не по душе - все хотят домой, на Родину. У Олега и Светы разлад в отношениях: она мечтает о детях, а Олегу совсем не до этого. И вот очередной скандал семьи: Олег уходит, хлопнув дверью. Возвращается, а Бобровых нет. Они уехали. Олегу приходится отправиться в Россию. На родине ему предстоит не только вновь завоевать сердце Светы, но и объединить суперсилы семейства Бобровых в схватке со злодеями планетарного масштаба, сделав из нерадивых родственников настоящих супергероев.

Качество: WEB-DLRip
Формат: AVI

Видео: XviD build 73, 688x288 (2.40:1), 24.000 fps, 1301 Kbps (~ 0.217 bit/pixe
Аудио: 48.0 kHz, MP3, 2/0 ch, 128 kbps
скриншот  скриншот  скриншот  скриншот  

General
Complete name : D:\Razdachi\Superbobrovy.2018.XviD.745Mb.WEB-DLRip.GeneralFilm.avi
Format : AVI
Format/Info : Audio Video Interleave
File size : 745 MiB
Duration : 1 h 29 min
Overall bit rate : 1 167 kb/s
Writing application : VirtualDubMod 1.5.10.3 | www.virtualdub-fr.org || (build 2550/release)
Writing library : VirtualDubMod build 2550/release

Video
ID : 0
Format : MPEG-4 Visual
Format profile : Advanced Simple@L5
Format settings, BVOP : 1
Format settings, QPel : No
Format settings, GMC : No warppoints
Format settings, Matrix : Custom
Codec ID : XVID
Codec ID/Hint : XviD
Duration : 1 h 29 min
Bit rate : 1 030 kb/s
Width : 688 pixels
Height : 288 pixels
Display aspect ratio : 2.40:1
Frame rate : 24.000 FPS
Color space : YUV
Chroma subsampling : 4:2:0
Bit depth : 8 bits
Scan type : Progressive
Compression mode : Lossy
Bits/(Pixel*Frame) : 0.217
Stream size : 657 MiB (88%)
Writing library : XviD 73

Audio
ID : 1
Format : MPEG Audio
Format version : Version 1
Format profile : Layer 3
Codec ID : 55
Codec ID/Hint : MP3
Duration : 1 h 29 min
Bit rate mode : Constant
Bit rate : 128 kb/s
Channel(s) : 2 channels
Sampling rate : 48.0 kHz
Compression mode : Lossy
Stream size : 81.7 MiB (11%)
Alignment : Aligned on interleaves
Interleave, duration : 42 ms (1.00 video frame)
Interleave, preload duratio : 504 ms
Writing library : LAME3.99r
Encoding settings : -m s -V 4 -q 2 -lowpass 17 -b 128

pb.wtf



Скачать СуперБобровы. Народные мстители через торрент https://c.radikal.ru/c27/1812/67/4a65526fd601.png Скачать фильм СуперБобровы. Народные мстители через торрент бесплантно в хорошем качестве Описание: Действие картины начинается в Таиланде, где семья Бобровых скрылась от правосудия. Теперь им приходится выступать в цирке-шапито, ... 9.4 10 15
Торрент: Зарегистрирован [2018-12-06 17:56] · скачан: 588 раз
Статус: √ проверено
Размер: 745 MB
Как cкачать? Как скачать СуперБобровы. Народные мстители через торрент | qTorrent

% Раздел Тема Автор DL S | L
Наши фильмы (HD, WEB-DL 720p, 1080p) [ 3.06 GB ] СуперБобровы. Народные мстители [2018 WEB-DL 1080p] bober100 Скачать
11 | 0
Наши новые фильмы 2018-2019 [ 1.39 GB ] СуперБобровы. Народные мстители [2018 WEB-DLRip-AVC] bober100 Скачать
3 | 0
Наши фильмы (HD, WEB-DL 720p, 1080p) [ 2.79 GB ] СуперБобровы. Народные мстители [2018 WEB-DL 720p] bober100 Скачать
2 | 0
Наши новые фильмы 2018-2019 [ 1.46 GB ] СуперБобровы. Народные мстители [2018 WEB-DLRip] bober100 Скачать
3 | 0
    Дорогой пользователь! Огромная просьба, поблагодарите релизера, оцените раздачу и оставьте свои комментарий, если Вы скачали СуперБобровы. Народные мстители через торрент бесплатно! Внесите свою лепту в развитие PiratBit!
    Комментировать посты могут только пользователи прошедшие не сложную регистрацию
    Показать сообщения:    

    СуперБобровы. Народные мстители через торрент
    Скачать бесплатно СуперБобровы. Народные мстители
    СуперБобровы. Народные мстители скачать торрент
    СуперБобровы. Народные мстители смотреть онлайн
    Cкачать фильм СуперБобровы. Народные мстители бесплатно
    СуперБобровы. Народные мстители скачать торрент в хорошем качестве
    СуперБобровы. Народные мстители смотреть онлайн бесплатно в хорошем качестве


    Вы не можете начинать темы
    Вы не можете отвечать на сообщения
    Вы не можете редактировать свои сообщения
    Вы не можете удалять свои сообщения
    Вы не можете голосовать в опросах
    Вы не можете прикреплять файлы к сообщениям
    Вы можете скачивать файлы