новый адрес
Ссылка на приватное зеркало всего за 1$. Внимание количество ограничено!!!

iTunes

1+1

iTunes

мы

iTunes

1

iTunes

Чернобыль

iTunes

Ральф против интернета

Лицензия

ПШазам

Лицензия

Оно 2

Лицензия

30
pack

Вам бонус

ВАЖНО

!!Акция!!

Alien_RageХит недели

RePack

Resident Evil 21

ИГРА 18+

pack

RePack

jed

!!Акция!!

Alien_Rage

RePack

fifa19

RePack

Assassins Creed: Odyssey

RePack

NEED FOR SPEED™ PAYBACK

3 сезон

9 сезон

Бесстыжие 9 сезон

Все сериалы

все сериалы на PB.wtf

RePack

FAR CRY 5
Ребята, катастрофически не хватает 1900р. для оплаты серверов за Октябрь (всвязи с блокировками трафик упал в 3 раза), 1-2р., выручайте.
  

Русалка. Озеро мертвых (Святослав Подгаевский) [2018, фэнтези, ужасы, HDRip, Не требуется Русский] [Лицензия] pb.wtf

Русалка. Озеро мертвых через торрент pb.wtf

Размер: 710 MB | Добавлен: 11 мес. назад | Торрент скачан:135 раз
Скачать  

06-12-2018 18:18 Русалка. Озеро мертвых Скачать торрент  

Русалка. Озеро мертвых
Год выпуска: 2018
Страна: Россия / Central Partnership,QS Films,STGCinema
Жанр: фэнтези, ужасы
Продолжительность: 01:26:59
Перевод: Не требуется Русский - [Лицензия]

Режиссер: Святослав Подгаевский

rating

В ролях: Виктория Агалакова, Ефим Петрунин, Никита Еленев, Сесиль Плеже, Игорь Хрипунов, Софья Шидловская, Дарья Ярцева, Дмитрий Ярцев, Алла Артамонова, Эмиль Салес

Описание: Встреча со странной девушкой на затерянном лесном озере и её поцелуй резко меняют жизнь Ромы. Об этой встрече он очень скоро пожалеет: неизвестный недуг высасывает из него все жизненные силы. Марина готова на всё, чтобы освободить жениха от мистического морока. Что окажется сильнее: проклятье прошлого или настоящая любовь?

Качество: HDRip
Формат: AVI
Видео кодек: XviD
Аудио кодек: MP3
Видео: 640x272 (2.35:1), 23.976 fps, XviD build 50 ~1000 kbps avg, 0.24 bit/pixel
Аудио: 48 kHz, MPEG Layer 3, 2 ch, ~128.00 kbps avg
скриншот   скриншот   скриншот   скриншот  

Общее
Полное имя : F:\ФИЛЬМЫ\Русалка. Озеро мертвых.2018.HDRip.avi
Формат : AVI
Формат/Информация : Audio Video Interleave
Размер файла : 710 Мбайт
Продолжительность : 1 ч. 26 м.
Режим общего битрейта : Переменный
Общий поток : 1142 Кбит/сек
Программа кодирования : VirtualDubMod 1.5.10.3 | www.virtualdub-fr.org || (build 2550/release)
Библиотека кодирования : VirtualDubMod build 2550/release

Видео
Идентификатор : 0
Формат : MPEG-4 Visual
Профиль формата : Advanced Simple@L5
Настройки формата : BVOP1
Параметр BVOP формата : 1
Параметр QPel формата : Нет
Параметр GMC формата : Без точки перехода
Параметр матрицы формата : Default (MPEG)
Идентификатор кодека : XVID
Идентификатор кодека/Подсказка : XviD
Продолжительность : 1 ч. 26 м.
Битрейт : 1001 Кбит/сек
Ширина : 640 пикселей
Высота : 272 пикселя
Соотношение сторон : 2,35:1
Частота кадров : 23,976 (24000/1001) кадра/сек
Цветовое пространство : YUV
Субдискретизация насыщенности : 4:2:0
Битовая глубина : 8 бит
Тип развёртки : Прогрессивная
Метод сжатия : С потерями
Бит/(Пиксели*Кадры) : 0.240
Размер потока : 623 Мбайт (88%)
Библиотека кодирования : XviD 1.2.1 (UTC 2008-12-04)

Аудио
Идентификатор : 1
Формат : MPEG Audio
Версия формата : Version 1
Профиль формата : Layer 3
Настройки формата : Joint stereo / MS Stereo
Идентификатор кодека : 55
Идентификатор кодека/Подсказка : MP3
Продолжительность : 1 ч. 26 м.
Вид битрейта : Переменный
Битрейт : 128 Кбит/сек
Каналы : 2 канала
Частота : 48,0 КГц
Метод сжатия : С потерями
Размер потока : 79,6 Мбайт (11%)
Выравнивание : Соединение по промежуткам
Продолжительность промежутка : 24 мс. (0,58 видеокадр)
Время предзагрузки промежутка : 486 мс.
Библиотека кодирования : LAME3.98.2

pb.wtf



Скачать Русалка. Озеро мертвых через торрент http://pic1.kartinco.top/images/12/benjy.jpg Скачать фильм Русалка. Озеро мертвых через торрент бесплантно в хорошем качестве Описание: Встреча со странной девушкой на затерянном лесном озере и её поцелуй резко меняют жизнь Ромы. Об этой встрече он очень скоро ... 10 10 5
Торрент: Зарегистрирован [2018-12-06 18:18] · скачан: 135 раз
Статус: √ проверено
Размер: 710 MB
Как cкачать? Как скачать Русалка. Озеро мертвых через торрент | qTorrent

% Раздел Тема Автор DL S | L
Наши новые фильмы 2018-2019 [ 1.46 GB ] Русалка. Озеро мертвых [2018 BDRip] [Русский] [] Twi7ter Скачать
1 | 0
Наши новые фильмы 2018-2019 [ 1.44 GB ] Русалка. Озеро мертвых [2018 BDRip-AVC] [GER Transfer] [ BD GER ] bober100 Скачать
1 | 0
Наши фильмы (HD, WEB-DL 720p, 1080p) [ 2.89 GB ] Русалка. Озеро мертвых [2018 BDRip 720p] [] - ExKinoRay Enigma2010 Скачать
2 | 0
Наши фильмы (HD, WEB-DL 720p, 1080p) [ 7.36 GB ] Русалка. Озеро мертвых [2018 BDRip 1080p] [GER Transfer] [ BD GER ] bober100 Скачать
1 | 0
Наши новые фильмы 2018-2019 [ 1.46 GB ] Русалка. Озеро мертвых [2018 BDRip] [GER Transfer] [ BD GER] bober100 Скачать
1 | 0
Наши фильмы (Blu-ray, BD-Remux, HDDVD) [ 23.18 GB ] Русалка. Озеро мертвых [2018 Blu-ray 1080p] [GER Transfer] [] bober100 Скачать
1 | 0
Наши фильмы (Blu-ray, BD-Remux, HDDVD) [ 13.99 GB ] Русалка. Озеро мертвых [2018 BD Remux 1080p] [GER Transfer] [] bober100 Скачать
1 | 0
    Дорогой пользователь! Огромная просьба, поблагодарите релизера, оцените раздачу и оставьте свои комментарий, если Вы скачали Русалка. Озеро мертвых через торрент бесплатно! Внесите свою лепту в развитие PiratBit!
    Комментировать посты могут только пользователи прошедшие не сложную регистрацию
    Показать сообщения:    

    Русалка. Озеро мертвых через торрент
    Скачать бесплатно Русалка. Озеро мертвых
    Русалка. Озеро мертвых скачать торрент
    Русалка. Озеро мертвых смотреть онлайн
    Cкачать фильм Русалка. Озеро мертвых бесплатно
    Русалка. Озеро мертвых скачать торрент в хорошем качестве
    Русалка. Озеро мертвых смотреть онлайн бесплатно в хорошем качестве


    Вы не можете начинать темы
    Вы не можете отвечать на сообщения
    Вы не можете редактировать свои сообщения
    Вы не можете удалять свои сообщения
    Вы не можете голосовать в опросах
    Вы не можете прикреплять файлы к сообщениям
    Вы можете скачивать файлы