Ссылка на приватное зеркало нашего сайта всего за 1$. Внимание количество ограничено!!!

2 сезон

iTunes

1 сезон

1

iTunes

iTunes

iTunes

1 сезон

RePack

30

ИГРА 18+

pack

ВАЖНО

!!Акция!!

Alien_RageХит недели

RePack

MK11
pack

Забери бонус

RePack

jed

!!Акция!!

Alien_Rage

RePack

fifa19

RePack

Assassins Creed: Odyssey

RePack

NEED FOR SPEED™ PAYBACK

4 сезон

9 сезон

Бесстыжие 9 сезон

Все сериалы

все сериалы на PB.wtf

RePack

FAR CRY 5
  

Лютый / Сезон: 2 / Серии: 1-4 из 4 (Станислав Мареев) [2018, Боевик, криминал, WEB-DLRip] pb.wtf

Лютый через торрент pb.wtf

Размер: 2.61 GB | Добавлен: 1 год 9 мес. назад | Торрент скачан:51 раз
Скачать  

06-12-2018 19:50 Лютый Скачать торрент  

Лютый - 2Год выпуска: 2018
Страна: Россия
Жанр: Боевик, криминал
Продолжительность: ~ 00:52:00
Субтитры: отсутствуют

Режиссер: Станислав Мареев

В ролях:

Владимир Епифанцев, Ирина Апексимова, Елена Панова, Михаил Трухин, Дарья Мельникова

Описание:

Главного героя, полицейского Максима Лютова, долго считали убитым. Когда он возвращается к работе в полиции и становится новым начальником убойного отдела, у многих коллег это вызывает шок. Старые знакомые смотрят на него как на ожившего покойника. Новые сотрудники отделения с трудом воспринимают его своеобразные манеры и внешний вид. Лютов груб, странно выглядит, странно шутит, и методы работы у него странные.

Качество: WEB-DLRip
Формат: AVI

Видео: XviD, ~ 1600 Кбит/с, 720х400
Аудио: AC3, 2 ch, 192 Кбит/с
скриншот  скриншот  скриншот  скриншот  скриншот  

Общее
Полное имя : D:\Лютый-2 (2018) .WEB-DLRip. Files-x\01.Lyutyy.s02.(2018).WEB-DLRip.by.Серый1779.Files-x.avi
Формат : AVI
Формат/Информация : Audio Video Interleave
Размер файла : 677 Мбайт
Продолжительность : 52 м. 30 с.
Общий поток : 1802 Кбит/сек
Программа кодирования : VirtualDubMod 1.5.10.3 | www.virtualdub-fr.org || (build 2550/release)
Библиотека кодирования : VirtualDubMod build 2550/release

Видео
Идентификатор : 0
Формат : MPEG-4 Visual
Профиль формата : Advanced Simple@L5
Параметр BVOP формата : 1
Параметр QPel формата : Нет
Параметр GMC формата : Без точки перехода
Параметр матрицы формата : Выборочная
Идентификатор кодека : XVID
Идентификатор кодека/Подсказка : XviD
Продолжительность : 52 м. 30 с.
Битрейт : 1600 Кбит/сек
Ширина : 720 пикселей
Высота : 400 пикселей
Соотношение сторон : 16:9
Частота кадров : 25,000 кадров/сек
Цветовое пространство : YUV
Субдискретизация насыщенности : 4:2:0
Битовая глубина : 8 бит
Тип развёртки : Прогрессивная
Метод сжатия : С потерями
Бит/(Пиксели*Кадры) : 0.222
Размер потока : 601 Мбайт (89%)
Библиотека кодирования : XviD 73

Аудио
Идентификатор : 1
Формат : AC-3
Формат/Информация : Audio Coding 3
Расширение режима : CM (complete main)
Параметр Endianness формата : Big
Идентификатор кодека : 2000
Продолжительность : 52 м. 30 с.
Вид битрейта : Постоянный
Битрейт : 192 Кбит/сек
Каналы : 2 канала
Расположение каналов : Front: L R
Частота : 48,0 КГц
Частота кадров : 31,250 кадров/сек (1536 spf)
Метод сжатия : С потерями
Размер потока : 72,1 Мбайт (11%)
Выравнивание : Разделение по промежуткам
Продолжительность промежутка : 40 мс. (1,00 видеокадр)
Время предзагрузки промежутка : 500 мс.

Внимание! Раздача ведётся путём добавления новых серий; при каждом добавлении создаётся новый торрент. Чтобы начать докачку новой серии, пользователям необходимо сделать следующее:
(1) остановить скачивание,
(2) удалить старый торрент-файл у себя из клиента (старые серии удалять не надо),
(3) скачать новый торрент-файл из раздачи и запустить его у себя в клиенте вместо старого, при этом указать клиенту путь в старую папку, куда и должно происходить скачивание новых серий.
pb.wtf



Скачать Лютый через торрент https://i106.fastpic.ru/big/2018/1206/91/98bd54415d2dc509fdc1cdab17dc6a91.jpg Скачать фильм Лютый через торрент бесплантно в хорошем качестве Описание: Главного героя, полицейского Максима Лютова, долго считали убитым. Когда он возвращается к работе в полиции и становится новым ... 9.9 10 9
Торрент: Зарегистрирован [2018-12-28 04:07] · скачан: 51 раз
Статус: √ проверено
Размер: 2.61 GB
Как cкачать? Как скачать Лютый через торрент | qTorrent

% Раздел Тема Автор DL S | L
Наши сериалы [ 4.37 GB ] Лютый / Сезон: 2 / Серии: 1-4 из 4 [2018 WEBRip 1080p] bober100 Скачать
1 | 0
Наши сериалы [ 2.6 GB ] Лютый / Сезон: 2 / Серии: 1-4 из 4 [2018 WEBRip-AVC] bober100 Скачать
1 | 0

28-11-2019 20:33  

Отключить всю рекламу на сайте

    Дорогой пользователь! Огромная просьба, поблагодарите релизера, оцените раздачу и оставьте свои комментарий, если Вы скачали Лютый через торрент бесплатно! Внесите свою лепту в развитие PiratBit!
    Комментировать посты могут только пользователи прошедшие не сложную регистрацию
    Показать сообщения:    

    Лютый через торрент
    Скачать бесплатно Лютый
    Лютый скачать торрент
    Лютый смотреть онлайн
    Cкачать фильм Лютый бесплатно
    Лютый скачать торрент в хорошем качестве
    Лютый смотреть онлайн бесплатно в хорошем качестве


    Вы не можете начинать темы
    Вы не можете отвечать на сообщения
    Вы не можете редактировать свои сообщения
    Вы не можете удалять свои сообщения
    Вы не можете голосовать в опросах
    Вы не можете прикреплять файлы к сообщениям
    Вы можете скачивать файлы