Достать ножи: Стеклянная луковица

MVO

Добыча

Дубляж

Уэнсдэй

1 сезон

Тор

Дубляж

13 клиническая

1 сезон

Жестокая ночь

MVO

Одни из нас

1 сезон

Deluxe

pack

Рекомендуем

30

Пиратка

ВАЖНО

ВАЖНО

Ghostwire

Пиратка

jed

RePack

nioh2

RePack

RDR2

RePack

NEED FOR SPEED™ PAYBACK

RePack

скачать торрент

Кинопоиск HD

Острые козырьки 6 сезон

6 сезон

FAR CRY 6

RePack

скачать торрент

Лицензия

скачать торрент

MVO

1

1 сезон

скачать торрент

1 сезон

скачать торрент

Лицензия

  

Пятница, 13-е (Расширенная версия) / Friday the 13th (Extended Cut) (Маркус Ниспел) [2009 г., ужасы, ремейк, слэшер, BDRip 1080p] Дубляж, DVO, 2xAVO, VO

Пятница, 13-е через торрент pb.wtf

Размер: 9.07 GB | Добавлен: 4 года 1 мес. назад | Торрент скачан:78 раз
Смотреть онлайн | Скачать | Поддержите нас   

06-12-2018 20:18 Пятница, 13-е Скачать торрент  

Пятница, 13-е / Friday the 13th
Расширенная версия / Extended Cut
Год выпуска: 2009
Страна: США
Жанр: Ужасы, ремейк, слэшер
Продолжительность: 01:45:30
Перевод: Дубляж, профессиональный (двухголосый), авторский (одноголосый), любительский (одноголосый)
Субтитры: Русские, английские

Режиссер: Маркус Ниспел

rating

В ролях: Джаред Падалеки, Даниэль Панабэйкер, Аманда Ригетти, Трэвис Ван Винкл, Аарон Ю, Дерек Мирс, Джонатан Садовский, Джулианна Гуилл, Бен Фельдман, Арлен Эскарпета, Райан Хансен, Уилла Форд, Ник Меннелл, Америка Оливо, Кайл Дэвис, Ричард Бёрджи, Крис Коппола, Розмари Ноуэр, Боб Кинг, Нана Визитор, Стефани Родс, Калеб Гусс, Трэвис Дэвис, Кэтлин Гаррет

Описание: Когда-то на Хрустальном озере существовал лагерь. Теперь это заброшенное место с довольно красивой природой, где можно оторваться по полной программе и отдохнуть не только лишь телом, но и душой. Вот и группа молодых людей решают провести здесь свой уик-энд, ведь не каждый раз выпадает такой шанс, когда можно уединиться в тихом и спокойном месте и делать то, что заблагорассудится. Только вот отдыхающие не догадываются, какую зловещую тайну хранит в себе это очаровательное на первый взгляд пристанище. Намерение уединиться от всех и всего нарушает молодой парень Клей, который уже не один день разыскивает свою пропавшую без вести сестру. Молодые люди не могли отказать в помощи Клею и начинают поиски, даже не догадываясь о том, что их ждет впереди. Ведь кроме них в этом лагере обитает кровожадный Джейсон, который начинают охоту за ними. Опасность подстерегает за углом каждого…
Качество: BDRip 1080p
Формат: MKV
Видео кодек: MPEG-4 AVC
Аудио кодек: AC3
Видео: MPEG-4 AVC, 10 Мбит/с, 1920x800, 23.976 кадр/с
Аудио#1: Русский, AC3, 2 ch, 192 Кбит/с - Профессиональный (дублированный) + вставки на все непереведённые места (SDI Media Latvia)
Аудио#2: Русский, AC3, 2 ch, 192 Кбит/с - Профессиональный (двухголосый закадровый) SDI Media Latvia
Аудио#3: Русский, AC3, 6 ch, 448 Кбит/с - Авторский (В. Горчаков)
Аудио#4: Русский, AC3, 6 ch, 448 Кбит/с - Авторский (Ю. Немахов)
Аудио#5: Русский, AC3, 6 ch, 384 Кбит/с - Любительский одноголосый (С. Сергеев - "RussianGuy27")
Аудио#6: Английский, AC3, 6 ch, 640 Кбит/с
Видео
Идентификатор : 1
Формат : AVC
Формат/Информация : Advanced Video Codec
Профиль формата : [email protected]
Настройки формата : CABAC / 5 Ref Frames
Параметр CABAC формата : Да
Параметр RefFrames формата : 5 кадров
Идентификатор кодека : V_MPEG4/ISO/AVC
Продолжительность : 1 ч. 45 м.
Битрейт : 10000 Кбит/сек
Ширина : 1920 пикселей
Высота : 800 пикселей
Соотношение сторон : 2,40:1
Режим частоты кадров : Постоянный
Частота кадров : 23,976 (24000/1001) кадра/сек
Цветовое пространство : YUV
Субдискретизация насыщенности : 4:2:0
Битовая глубина : 8 бит
Тип развёртки : Прогрессивная
Бит/(Пиксели*Кадры) : 0.272
Размер потока : 7,37 Гбайт (81%)
Библиотека кодирования : x264 core 128 r2216M 198a7ea
Настройки программы : cabac=1 / ref=6 / deblock=1:-1:-1 / analyse=0x3:0x133 / me=tesa / subme=11 / psy=1 / psy_rd=1.00:0.15 / mixed_ref=1 / me_range=16 / chroma_me=1 / trellis=2 / 8x8dct=1 / cqm=0 / deadzone=21,11 / fast_pskip=1 / chroma_qp_offset=-3 / threads=4 / lookahead_threads=1 / sliced_threads=0 / nr=0 / decimate=1 / interlaced=0 / bluray_compat=0 / constrained_intra=0 / bframes=6 / b_pyramid=1 / b_adapt=2 / b_bias=0 / direct=3 / weightb=1 / open_gop=0 / weightp=2 / keyint=230 / keyint_min=23 / scenecut=40 / intra_refresh=0 / rc_lookahead=120 / rc=2pass / mbtree=1 / bitrate=10000 / ratetol=1.0 / qcomp=0.60 / qpmin=10 / qpmax=51 / qpstep=4 / cplxblur=20.0 / qblur=0.5 / ip_ratio=1.40 / aq=1:1.00
Язык : English
Default : Да
Forced : Нет

Аудио #1
Идентификатор : 2
Формат : AC-3
Формат/Информация : Audio Coding 3
Коммерческое название : Dolby Digital
Идентификатор кодека : A_AC3
Продолжительность : 1 ч. 45 м.
Вид битрейта : Постоянный
Битрейт : 192 Кбит/сек
Каналы : 2 канала
Channel layout : L R
Частота : 48,0 КГц
Частота кадров : 31,250 кадров/сек (1536 SPF)
Битовая глубина : 16 бит
Метод сжатия : С потерями
Размер потока : 145 Мбайт (2%)
Заголовок : Дубляж + DVO
Язык : Russian
ServiceKind/String : Complete Main
Default : Да
Forced : Нет

Аудио #2
Идентификатор : 3
Формат : AC-3
Формат/Информация : Audio Coding 3
Коммерческое название : Dolby Digital
Идентификатор кодека : A_AC3
Продолжительность : 1 ч. 45 м.
Вид битрейта : Постоянный
Битрейт : 192 Кбит/сек
Каналы : 2 канала
Channel layout : L R
Частота : 48,0 КГц
Частота кадров : 31,250 кадров/сек (1536 SPF)
Битовая глубина : 16 бит
Метод сжатия : С потерями
Размер потока : 145 Мбайт (2%)
Заголовок : SDI Media Latvia
Язык : Russian
ServiceKind/String : Complete Main
Default : Нет
Forced : Нет

Аудио #3
Идентификатор : 4
Формат : AC-3
Формат/Информация : Audio Coding 3
Коммерческое название : Dolby Digital
Идентификатор кодека : A_AC3
Продолжительность : 1 ч. 45 м.
Вид битрейта : Постоянный
Битрейт : 448 Кбит/сек
Каналы : 6 каналов
Channel layout : L R C LFE Ls Rs
Частота : 48,0 КГц
Частота кадров : 31,250 кадров/сек (1536 SPF)
Битовая глубина : 16 бит
Метод сжатия : С потерями
Размер потока : 338 Мбайт (4%)
Заголовок : В. Горчаков
Язык : Russian
ServiceKind/String : Complete Main
Default : Нет
Forced : Нет

Аудио #4
Идентификатор : 5
Формат : AC-3
Формат/Информация : Audio Coding 3
Коммерческое название : Dolby Digital
Идентификатор кодека : A_AC3
Продолжительность : 1 ч. 45 м.
Вид битрейта : Постоянный
Битрейт : 448 Кбит/сек
Каналы : 6 каналов
Channel layout : L R C LFE Ls Rs
Частота : 48,0 КГц
Частота кадров : 31,250 кадров/сек (1536 SPF)
Битовая глубина : 16 бит
Метод сжатия : С потерями
Размер потока : 338 Мбайт (4%)
Заголовок : Ю. Немахов
Язык : Russian
ServiceKind/String : Complete Main
Default : Нет
Forced : Нет

Аудио #5
Идентификатор : 6
Формат : AC-3
Формат/Информация : Audio Coding 3
Коммерческое название : Dolby Digital
Идентификатор кодека : A_AC3
Продолжительность : 1 ч. 45 м.
Вид битрейта : Постоянный
Битрейт : 384 Кбит/сек
Каналы : 6 каналов
Channel layout : L R C LFE Ls Rs
Частота : 48,0 КГц
Частота кадров : 31,250 кадров/сек (1536 SPF)
Битовая глубина : 16 бит
Метод сжатия : С потерями
Размер потока : 290 Мбайт (3%)
Заголовок : С. Сергеев - (RussianGuy27)
Язык : Russian
ServiceKind/String : Complete Main
Default : Нет
Forced : Нет

Аудио #6
Идентификатор : 7
Формат : AC-3
Формат/Информация : Audio Coding 3
Коммерческое название : Dolby Digital
Идентификатор кодека : A_AC3
Продолжительность : 1 ч. 45 м.
Вид битрейта : Постоянный
Битрейт : 640 Кбит/сек
Каналы : 6 каналов
Channel layout : L R C LFE Ls Rs
Частота : 48,0 КГц
Частота кадров : 31,250 кадров/сек (1536 SPF)
Битовая глубина : 16 бит
Метод сжатия : С потерями
Размер потока : 483 Мбайт (5%)
Язык : English
ServiceKind/String : Complete Main
Default : Нет
Forced : Нет

Текст #1
Идентификатор : 8
Формат : UTF-8
Идентификатор кодека : S_TEXT/UTF8
Идентификатор кодека/Информация : UTF-8 Plain Text
Продолжительность : 1 ч. 36 м.
Битрейт : 64 бит/сек
ElementCount : 890
Размер потока : 45,1 Кбайт (0%)
Язык : Russian
Default : Нет
Forced : Нет

Текст #2
Идентификатор : 9
Формат : UTF-8
Идентификатор кодека : S_TEXT/UTF8
Идентификатор кодека/Информация : UTF-8 Plain Text
Продолжительность : 1 ч. 38 м.
Битрейт : 40 бит/сек
ElementCount : 979
Размер потока : 29,1 Кбайт (0%)
Язык : English
Default : Нет
Forced : Нет

скриншот   скриншот   скриншот   скриншот   скриншот  




Скачать Пятница, 13-е через торрент https://pic1.kartinco.top/images/12/nnb23.jpg Скачать, смотреть онлайн Пятница, 13-е бесплантно в хорошем качестве Описание: Когда-то на Хрустальном озере существовал лагерь. Теперь это заброшенное место с довольно красивой природой, где можно оторваться ... 10 10 4
Торрент: Зарегистрирован [2018-12-06 20:18] · скачан: 78 раз
Статус: √ проверено
Размер: 9.07 GB
Как cкачать? Как скачать Пятница, 13-е через торрент | UTorrent

28-11-2019 20:33  


Отключить вcю реклaмy на сайте, в т.ч. и в плеере онлайн просмотра!

    Дорогой пользователь! Огромная просьба, поблагодарите релизера, оцените раздачу и оставьте свои комментарий, если Вы скачали Пятница, 13-е через торрент бесплатно!!
    Комментировать посты могут только пользователи прошедшие не сложную регистрацию
    Показать сообщения:    


    Пятница, 13-е через торрент
    Скачать бесплатно Пятница, 13-е
    Пятница, 13-е скачать торрент
    Пятница, 13-е смотреть онлайн
    Cкачать фильм Пятница, 13-е бесплатно
    Пятница, 13-е скачать торрент в хорошем качестве
    Пятница, 13-е смотреть онлайн бесплатно в хорошем качестве
    Вы не можете начинать темы
    Вы не можете отвечать на сообщения
    Вы не можете редактировать свои сообщения
    Вы не можете удалять свои сообщения
    Вы не можете голосовать в опросах
    Вы не можете прикреплять файлы к сообщениям
    Вы можете скачивать файлы
    Пятница, 13-е / Friday the 13th [2009 г., ужасы, ремейк, слэшер, BDRip 1080p] Дубляж, DVO, 2xAVO, VO смотреть онлайн, скачать торрент picoco.icu