Ссылка на приватное зеркало всего за 1$. Внимание количество ограничено!!!

OK

1+1

iTunes

мы

OK

1

WEB-DLRip

Джокер

Пифагор

Ведьмак / The Witcher сериал

iTunes

ПШазам

ОК

Оно 2

iTunes

30
pack

Вам бонус

ВАЖНО

!!Акция!!

Alien_RageХит недели

RePack

Resident Evil 21

ИГРА 18+

pack

RePack

jed

RePack

fifa19

RePack

Assassins Creed: Odyssey

RePack

NEED FOR SPEED™ PAYBACK

4 сезон

9 сезон

Бесстыжие 9 сезон

Все сериалы

все сериалы на PB.wtf

RePack

FAR CRY 5
  

Вниз по реке / Down River (Александр Рэй Пиментел) [2018, Военный, WEB-DL 720p] MVO ["Синема УС"] pb.wtf

Вниз по реке через торрент pb.wtf

Размер: 2.53 GB | Добавлен: 1 год 1 мес. назад | Торрент скачан:32 раза
Скачать  

07-12-2018 04:31 Вниз по реке Скачать торрент  

Вниз по реке / Down RiverГод выпуска: 2018
Страна: США
Жанр: Военный
Продолжительность: 01:11:06
Перевод: Любительский (многоголосый) | "Синема УС"
Субтитры: отсутствуют

Режиссер: Александр Рэй Пиментел

rating

В ролях:

Александр Рэй Пиментел, Коди Пуаро, Бреннен Риз, Захари Грин, Джерон Пирс, Кристофер Диас, Николас Винанд

Описание:

Четверо солдат, оказавшихся глубоко в тылу врага, вынуждены бороться со своими страхами и контролировать желания, пытаясь отыскать способ вернуться к своему батальону.

Качество: WEB-DL 720p
Формат: MKV

Видео: h.264, 4 707 Кбит/с, 1280x720
Аудио#1: Русский, (AC3, 2 ch, 384 Кбит/с)
скриншот  скриншот  скриншот  

Общее
Уникальный идентификатор : 231979278477259448002370820082135023688 (0xAE859579CB1CDBF983354388F9054048)
Полное имя : D:\Down.River.2018.P.WEB-DL.72Op.mkv
Формат : Matroska
Версия формата : Version 2
Размер файла : 2,53 Гбайт
Продолжительность : 1 ч. 11 м.
Режим общего битрейта : Переменный
Общий поток : 5093 Кбит/сек
Дата кодирования : UTC 2018-12-06 19:44:21
Программа кодирования : mkvmerge v8.3.0 ('Over the Horizon') 64bit
Библиотека кодирования : libebml v1.3.1 + libmatroska v1.4.2

Видео
Идентификатор : 1
Формат : AVC
Формат/Информация : Advanced Video Codec
Профиль формата : High@L4.1
Параметр CABAC формата : Да
Параметр RefFrames формата : 4 кадра
Идентификатор кодека : V_MPEG4/ISO/AVC
Продолжительность : 1 ч. 11 м.
Вид битрейта : Переменный
Битрейт : 4707 Кбит/сек
Максимальный битрейт : 5500 Кбит/сек
Ширина : 1280 пикселей
Высота : 720 пикселей
Соотношение сторон : 16:9
Режим частоты кадров : Постоянный
Частота кадров : 23,976 (24000/1001) кадра/сек
Стандарт вещания : Component
Цветовое пространство : YUV
Субдискретизация насыщенности : 4:2:0
Битовая глубина : 8 бит
Тип развёртки : Прогрессивная
Бит/(Пиксели*Кадры) : 0.209
Размер потока : 2,29 Гбайт (90%)
Default : Да
Forced : Нет
Цветовой диапазон : Limited
Основные цвета : BT.709
Характеристики трансфера : BT.709
Коэффициенты матрицы : BT.709

Аудио
Идентификатор : 2
Формат : AC-3
Формат/Информация : Audio Coding 3
Расширение режима : CM (complete main)
Параметр Endianness формата : Big
Идентификатор кодека : A_AC3
Продолжительность : 1 ч. 11 м.
Вид битрейта : Постоянный
Битрейт : 384 Кбит/сек
Каналы : 2 канала
Расположение каналов : Front: L R
Частота : 48,0 КГц
Частота кадров : 31,250 кадров/сек (1536 spf)
Метод сжатия : С потерями
Размер потока : 195 Мбайт (8%)
Default : Да
Forced : Нет

pb.wtf



Скачать Вниз по реке через торрент https://c.radikal.ru/c11/1812/a0/6ed7de3593fc.jpg Скачать фильм Вниз по реке через торрент бесплантно в хорошем качестве Описание: Четверо солдат, оказавшихся глубоко в тылу врага, вынуждены бороться со своими страхами и контролировать желания, пытаясь ... 7 10 3
Торрент: Зарегистрирован [2018-12-07 04:31] · скачан: 32 раз
Статус: T временная
Размер: 2.53 GB
Как cкачать? Как скачать Вниз по реке через торрент | qTorrent

% Раздел Тема Автор DL S | L
T Фильмы (мультфильмы) cо спонсором показа (Новинки AVI/MKV) [ 1.37 GB ] Вниз по реке / Down River [2018 Военный WEB-DLRip] MVO ["Синема УС"] bober100 Скачать
1 | 0

28-11-2019 20:33  

Отключить всю рекламу на сайте

07-12-2018 20:47 Вниз по реке Скачать торрент  

Вот откуда пошло сам себе режиссёр))
Суля по скринам это не США, а Пакистан какой тоpb.wtf



    Дорогой пользователь! Огромная просьба, поблагодарите релизера, оцените раздачу и оставьте свои комментарий, если Вы скачали Вниз по реке через торрент бесплатно! Внесите свою лепту в развитие PiratBit!
    Комментировать посты могут только пользователи прошедшие не сложную регистрацию
    Показать сообщения:    

    Вниз по реке через торрент
    Скачать бесплатно Вниз по реке
    Вниз по реке скачать торрент
    Вниз по реке смотреть онлайн
    Cкачать фильм Вниз по реке бесплатно
    Вниз по реке скачать торрент в хорошем качестве
    Вниз по реке смотреть онлайн бесплатно в хорошем качестве


    Вы не можете начинать темы
    Вы не можете отвечать на сообщения
    Вы не можете редактировать свои сообщения
    Вы не можете удалять свои сообщения
    Вы не можете голосовать в опросах
    Вы не можете прикреплять файлы к сообщениям
    Вы можете скачивать файлы