новый адрес
Ссылка на приватное зеркало всего за 1$. Внимание количество ограничено!!!

iTunes

1+1

iTunes

мы

WEB-DL

1

iTunes

Чернобыль

iTunes

Ральф против интернета

Лицензия

ПШазам

Лицензия

Оно 2

Лицензия

30
pack

Вам бонус

ВАЖНО

!!Акция!!

Alien_RageХит недели

RePack

Resident Evil 21

ИГРА 18+

pack

RePack

jed

!!Акция!!

Alien_Rage

RePack

fifa19

RePack

Assassins Creed: Odyssey

RePack

NEED FOR SPEED™ PAYBACK

3 сезон

9 сезон

Бесстыжие 9 сезон

Все сериалы

все сериалы на PB.wtf

RePack

FAR CRY 5
Ребята, катастрофически не хватает 1900р. для оплаты серверов за Октябрь (всвязи с блокировками трафик упал в 3 раза), 1-2р., выручайте.
  

Операция «Финал» / Operation Finale (Крис Вайц) [2018, Триллер, драма, биография, история, BDRip-AVC] DUB [Пифагор] pb.wtf

Операция «Финал» через торрент pb.wtf

Размер: 2.61 GB | Добавлен: 1 год назад | Торрент скачан:323 раза
Скачать  

07-12-2018 05:24 Операция «Финал» Скачать торрент  

Операция «Финал» / Operation Finale Год выпуска: 2018
Страна: США
Жанр: Триллер, драма, биография, история
Продолжительность: 02:02:38
Перевод: Дублированный | Пифагор
Субтитры: Русские (форс., полные), Английские (полные, SDH)

Режиссер: Крис Вайц

rating

В ролях:

Оскар Айзек, Бен Кингсли, Мелани Лоран, Лайор Раз, Ник Кролл, Майкл Аронов, Охад Кноллер, Грег Хилл, Торбен Либрехт

Описание:

Через 15 лет после окончания Второй мировой войны создаётся команда спецагентов, чтобы выследить Адольфа Эйхмана — печально известного сотрудника гестапо, отвечавшего за «окончательное решение еврейского вопроса».

Качество: BDRip-AVC
Формат: MKV

Видео: 1024x554 (1.85:1), 23,976 fps, x264 ~2 147 kbps avg, 0.158 bit/pixel
Аудио#1: 48 kHz, AC3 Dolby Digital, 3/2 (L,C,R,l,r) + LFE ch, ~448.00 kbps avg | RUS (Пифагор)
Аудио#2: 48 kHz, AC3 Dolby Digital, 3/2 (L,C,R,l,r) + LFE ch, ~448.00 kbps avg | ENG
скриншот  скриншот  скриншот  скриншот  скриншот  

Общее
Уникальный идентификатор : 6559932628225179664709929213991483964 (0x4EF65A642B9E599C4A2F07B4DE27A3C)
Полное имя : F:OlLanDGroupOperation.Finale.2018.BDRip(AVC).OlLanDGroup.mkv
Формат : Matroska
Версия формата : Version 4 / Version 2
Размер файла : 2,61 Гбайт
Продолжительность : 2 ч. 2 м.
Общий поток : 3044 Кбит/сек
Название фильма : Operation.Finale.2018 #TorpedoUK#
Дата кодирования : UTC 2018-12-06 02:58:24
Программа кодирования : mkvmerge v25.0.0 ('Prog Noir') 64-bit
Библиотека кодирования : libebml v1.3.6 + libmatroska v1.4.9

Видео
Идентификатор : 1
Формат : AVC
Формат/Информация : Advanced Video Codec
Профиль формата : High@L4.1
Параметр CABAC формата : Да
Параметр ReFrames формата : 10 кадров
Идентификатор кодека : V_MPEG4/ISO/AVC
Продолжительность : 2 ч. 2 м.
Битрейт : 2147 Кбит/сек
Ширина : 1024 пикселя
Высота : 554 пикселя
Соотношение сторон : 1,85:1
Режим частоты кадров : Постоянный
Частота кадров : 23,976 (24000/1001) кадра/сек
Цветовое пространство : YUV
Субдискретизация насыщенности : 4:2:0
Битовая глубина : 8 бит
Тип развёртки : Прогрессивная
Бит/(Пиксели*Кадры) : 0.158
Размер потока : 1,84 Гбайт (70%)
Библиотека кодирования : x264 core 146 r2538 121396c
Настройки программы : cabac=1 / ref=10 / deblock=1:-2:-3 / analyse=0x3:0x113 / me=umh / subme=11 / psy=1 / psy_rd=0.95:0.07 / mixed_ref=1 / me_range=48 / chroma_me=1 / trellis=2 / 8x8dct=1 / cqm=0 / deadzone=21,11 / fast_pskip=1 / chroma_qp_offset=-3 / threads=6 / lookahead_threads=1 / sliced_threads=0 / nr=0 / decimate=1 / interlaced=0 / bluray_compat=0 / constrained_intra=0 / bframes=11 / b_pyramid=2 / b_adapt=2 / b_bias=0 / direct=3 / weightb=1 / open_gop=0 / weightp=2 / keyint=240 / keyint_min=23 / scenecut=40 / intra_refresh=0 / rc_lookahead=40 / rc=2pass / mbtree=0 / bitrate=2147 / ratetol=1.0 / qcomp=0.60 / qpmin=0 / qpmax=69 / qpstep=4 / cplxblur=20.0 / qblur=0.5 / vbv_maxrate=50000 / vbv_bufsize=62500 / nal_hrd=none / filler=0 / ip_ratio=1.40 / pb_ratio=1.30 / aq=1:1.00
Язык : English
Default : Да
Forced : Нет

Аудио #1
Идентификатор : 2
Формат : AC-3
Формат/Информация : Audio Coding 3
Расширение режима : CM (complete main)
Параметр Endianness формата : Big
Идентификатор кодека : A_AC3
Продолжительность : 2 ч. 2 м.
Вид битрейта : Постоянный
Битрейт : 448 Кбит/сек
Каналы : 6 каналов
Расположение каналов : Front: L C R, Side: L R, LFE
Частота : 48,0 КГц
Частота кадров : 31,250 кадров/сек (1536 spf)
Битовая глубина : 16 бит
Метод сжатия : С потерями
Размер потока : 393 Мбайт (15%)
Заголовок : DUB [Pifagor]
Язык : Russian
Default : Да
Forced : Нет

Аудио #2
Идентификатор : 3
Формат : AC-3
Формат/Информация : Audio Coding 3
Расширение режима : CM (complete main)
Параметр Endianness формата : Big
Идентификатор кодека : A_AC3
Продолжительность : 2 ч. 2 м.
Вид битрейта : Постоянный
Битрейт : 448 Кбит/сек
Каналы : 6 каналов
Расположение каналов : Front: L C R, Side: L R, LFE
Частота : 48,0 КГц
Частота кадров : 31,250 кадров/сек (1536 spf)
Битовая глубина : 16 бит
Метод сжатия : С потерями
Размер потока : 393 Мбайт (15%)
Заголовок : [Original]
Язык : English
Default : Нет
Forced : Нет

Текст #1
Идентификатор : 4
Формат : UTF-8
Идентификатор кодека : S_TEXT/UTF8
Идентификатор кодека/Информация : UTF-8 Plain Text
Продолжительность : 1 ч. 57 м.
Битрейт : 3 бит/сек
Count of elements : 62
Размер потока : 2,83 Кбайт (0%)
Заголовок : Forced
Язык : Russian
Default : Да
Forced : Нет

Текст #2
Идентификатор : 5
Формат : UTF-8
Идентификатор кодека : S_TEXT/UTF8
Идентификатор кодека/Информация : UTF-8 Plain Text
Продолжительность : 2 ч. 1 м.
Битрейт : 70 бит/сек
Count of elements : 1333
Размер потока : 62,8 Кбайт (0%)
Заголовок : Full
Язык : Russian
Default : Нет
Forced : Нет

Текст #3
Идентификатор : 6
Формат : UTF-8
Идентификатор кодека : S_TEXT/UTF8
Идентификатор кодека/Информация : UTF-8 Plain Text
Продолжительность : 1 ч. 53 м.
Битрейт : 48 бит/сек
Count of elements : 1418
Размер потока : 40,1 Кбайт (0%)
Заголовок : Full
Язык : English
Default : Нет
Forced : Нет

Текст #4
Идентификатор : 7
Формат : UTF-8
Идентификатор кодека : S_TEXT/UTF8
Идентификатор кодека/Информация : UTF-8 Plain Text
Продолжительность : 1 ч. 53 м.
Битрейт : 54 бит/сек
Count of elements : 1606
Размер потока : 45,0 Кбайт (0%)
Заголовок : SDH
Язык : English
Default : Нет
Forced : Нет

Меню
00:00:00.000 : en:Chapter 1
00:07:11.055 : en:Chapter 2
00:13:22.176 : en:Chapter 3
00:17:19.538 : en:Chapter 4
00:24:44.149 : en:Chapter 5
00:31:32.599 : en:Chapter 6
00:35:49.647 : en:Chapter 7
00:40:26.799 : en:Chapter 8
00:47:11.578 : en:Chapter 9
00:54:53.915 : en:Chapter 10
01:00:20.700 : en:Chapter 11
01:08:55.840 : en:Chapter 12
01:14:11.238 : en:Chapter 13
01:22:05.795 : en:Chapter 14
01:27:13.561 : en:Chapter 15
01:34:38.130 : en:Chapter 16
01:41:02.264 : en:Chapter 17
01:45:13.348 : en:Chapter 18
01:51:04.157 : en:Chapter 19
01:58:06.621 : en:Chapter 20

pb.wtf



Скачать Операция «Финал» через торрент https://i107.fastpic.ru/big/2018/1206/9e/fc2ccd502da89aaa5d4c3c385401ed9e.jpg Скачать фильм Операция «Финал» через торрент бесплантно в хорошем качестве Описание: Через 15 лет после окончания Второй мировой войны создаётся команда спецагентов, чтобы выследить Адольфа Эйхмана — печально ... 10 10 7
Торрент: Зарегистрирован [2018-12-07 05:24] · скачан: 323 раз
Статус: √ проверено
Размер: 2.61 GB
Как cкачать? Как скачать Операция «Финал» через торрент | qTorrent

% Раздел Тема Автор DL S | L
Фильмы [HD 720p, 1080p] (Хороший звук DUB, MVO) [ 4.96 GB ] Операция «Финал» / Operation Finale [2018 биография история BDRip 720p] DUB [Пифагор] MVO - ExKinoRay Enigma2010 Скачать
34 | 3
Фильмы 2018 [DVDrip, WEB-DLRip, HDrip] (DUB, MVO) [ 2.18 GB ] Операция «Финал» / Operation Finale [2018 биография история BDRip] DUB [Пифагор] bober100 Скачать
1 | 0
Фильмы 2018 [DVDrip, WEB-DLRip, HDrip] (DUB, MVO) [ 1.46 GB ] Операция «Финал» / Operation Finale [2018 биография история BDRip] DUB [Пифагор] bober100 Скачать
2 | 0
Фильмы [HD 720p, 1080p] (Хороший звук DUB, MVO) [ 13.52 GB ] Операция «Финал» / Operation Finale [2018 биография история BDRip 1080p] DUB [Пифагор] bober100 Скачать
2 | 0
Фильмы (WEB-DL 720p, 1080p) [ 2.42 GB ] Операция «Финал» / Operation Finale [2018 биография история WEBRip 720p] DUB [Пифагор] bober100 Скачать
1 | 0
Фильмы (WEB-DL 720p, 1080p) [ 3.81 GB ] Операция «Финал» / Operation Finale [2018 биография история WEBRip 1080p] killermax2013 Скачать
1 | 0

28-11-2019 20:33  

Отключить всю рекламу на сайте

07-12-2018 05:48 Операция «Финал» Скачать торрент  

эти пенсионеры якобы больше наших получают там у себя в германии кстати и это печальноpb.wtf



07-12-2018 17:35 Операция «Финал» Скачать торрент  

Renzo писал(а):

эти пенсионеры якобы больше наших получают там у себя в германии кстати и это печально

И автомобили у них лучше. Странно да ?pb.wtf



07-12-2018 20:11 Операция «Финал» Скачать торрент  

Zool писал(а):

Renzo писал(а):

эти пенсионеры якобы больше наших получают там у себя в германии кстати и это печально

И автомобили у них лучше. Странно да ?

У них и в те годы машины были лучше. Это никак не помешало тогда, и не помешает нам снова натянуть им глаз на жопу, если Верховный прикажетpb.wtf



    Дорогой пользователь! Огромная просьба, поблагодарите релизера, оцените раздачу и оставьте свои комментарий, если Вы скачали Операция «Финал» через торрент бесплатно! Внесите свою лепту в развитие PiratBit!
    Комментировать посты могут только пользователи прошедшие не сложную регистрацию
    Показать сообщения:    

    Операция «Финал» через торрент
    Скачать бесплатно Операция «Финал»
    Операция «Финал» скачать торрент
    Операция «Финал» смотреть онлайн
    Cкачать фильм Операция «Финал» бесплатно
    Операция «Финал» скачать торрент в хорошем качестве
    Операция «Финал» смотреть онлайн бесплатно в хорошем качестве


    Вы не можете начинать темы
    Вы не можете отвечать на сообщения
    Вы не можете редактировать свои сообщения
    Вы не можете удалять свои сообщения
    Вы не можете голосовать в опросах
    Вы не можете прикреплять файлы к сообщениям
    Вы можете скачивать файлы