Ссылка на приватное зеркало нашего сайта всего за 1$. Внимание количество ограничено!!!

2 сезон

iTunes

1 сезон

1

2 сезон

2 сезон

iTunes

1 сезон

RePack

30

Ultimate

ВАЖНО

ИГРА 18+

pack

RePack

MK11
pack

Забери бонус

RePack

jed

!!Акция!!

Alien_Rage

RePack

fifa19

RePack

Assassins Creed: Odyssey

RePack

NEED FOR SPEED™ PAYBACK

4 сезон

9 сезон

Бесстыжие 9 сезон

Все сериалы

все сериалы на PB.wtf

RePack

FAR CRY 5
  

Клирики / Ainsi soient-ils / Сезон: 3 / Серии: 1-8 из 8 (Родольф Тиссо, Элизабет Марр, Оливье Понт) [2015, драма, BDRip 720p] DVO [ViruseProject] pb.wtf

Клирики через торрент pb.wtf

Размер: 26.43 GB | Добавлен: 1 год 11 мес. назад | Торрент скачан:1 раз
Скачать  

07-12-2018 10:39 Клирики Скачать торрент  

Клирики / Ainsi soient-ils

Год выпуска: 2015
Страна: Франция
Жанр: драма
Продолжительность: ~00:50:00
Перевод: Любительский (двухголосый закадровый)
ViruseProject
Субтитры: русские, английские, голландские, французские, немецкие, румынские

Режиссёр: Родольф Тиссо, Элизабет Марр, Оливье Понт

В ролях:

Жюльен Буаниш, Самуэль Жуи, Тьерри Хименес, Клеман Мануэль, Жан-Люк Бидо, Николя Бокер и др.

Описание: Париж, наши дни. Пятеро молодых людей, будущих священников, поступают в семинарию капуцинов, которым руководит обаятельный отец Фроманжер. Наблюдая за борьбой тела и духа, веры и сомнения зрителю предстоит неизведанное доселе погружение в кулуары церкви.

Качество: BDRip 720p
Формат: MKV

Видео: 1 280 x 720 (16:9), 8 300 kb/s, 25.000 FPS, 8 bits
Аудио Rus: 48.0 kHz, AC3, 2 channels, 192 kb/s
Аудио Fre: 48.0 kHz, FLAC, 2 channels, 482 kb/s


Реклама: В аудио в начале и конце по 12 секунд.

Внимание! Раздача ведётся путём добавления новых серий; при каждом добавлении создаётся новый торрент. Чтобы начать докачку новой серии, пользователям необходимо сделать следующее:
(1) остановить скачивание,
(2) удалить старый торрент у себя из клиента (старые серии удалять не надо),
(3) скачать новый торрент и запустить его у себя в клиенте вместо старого, при этом указать клиенту путь в старую папку куда и должно происходить скачивание новых серий.

Ваш клиент при этом должен произвести хеширование (проверку) старой папки (если не производит сам - помогите ему сделать это), и будет докачивать только те серии которых у вас ещё нет. Старые серии при этом не удаляются, а продолжают раздаваться!

Eсли вы уже удалили старые серии, то предотвратить повторную закачку старых серий можно, отжав галочку в соответствующих местах при запуске нового торрента. По возможности, желательно не удалять старые серии как можно дольше чтобы релизёр не столько продолжал раздавать старые серии, а смог сконцентрироваться на новых.
General
Unique ID : 229050511990311988793263093779111994274 (0xAC518623AE22E18B837224A02BD9E3A2)
Complete name : Ainsi.soient-ils.S03E01.720p.BDRip.ViruseProject.mkv
Format : Matroska
Format version : Version 4 / Version 2
File size : 2.92 GiB
Duration : 46 min 36 s
Overall bit rate mode : Variable
Overall bit rate : 8 966 kb/s
Encoded date : UTC 2018-12-07 09:14:50
Writing application : mkvmerge v8.3.0 ('Over the Horizon') 64bit
Writing library : libebml v1.3.1 + libmatroska v1.4.2

Video
ID : 1
Format : AVC
Format/Info : Advanced Video Codec
Format profile : High@L4.1
Format settings, CABAC : Yes
Format settings, ReFrames : 9 frames
Codec ID : V_MPEG4/ISO/AVC
Duration : 46 min 25 s
Bit rate : 8 324 kb/s
Width : 1 280 pixels
Height : 720 pixels
Display aspect ratio : 16:9
Original display aspect ratio : 16:9
Frame rate mode : Constant
Frame rate : 25.000 FPS
Color space : YUV
Chroma subsampling : 4:2:0
Bit depth : 8 bits
Scan type : Progressive
Bits/(Pixel*Frame) : 0.361
Stream size : 2.70 GiB (92%)
Title : Ainsi soient-ils. Saison 03 Épisode 01 FRE
Writing library : x264 core 146 r2538kMod 121396c
Encoding settings : cabac=1 / ref=9 / deblock=1:-3:-3 / analyse=0x3:0x133 / me=umh / subme=11 / psy=1 / fade_compensate=0.00 / psy_rd=1.00:0.00 / mixed_ref=1 / me_range=32 / chroma_me=1 / trellis=2 / 8x8dct=1 / cqm=0 / deadzone=21,11 / fast_pskip=1 / chroma_qp_offset=-2 / threads=12 / lookahead_threads=3 / sliced_threads=0 / nr=0 / decimate=1 / interlaced=0 / bluray_compat=0 / constrained_intra=0 / fgo=0 / bframes=10 / b_pyramid=2 / b_adapt=2 / b_bias=0 / direct=3 / weightb=1 / open_gop=0 / weightp=2 / keyint=250 / keyint_min=25 / scenecut=40 / intra_refresh=0 / rc=crf / mbtree=0 / crf=13.0000 / qcomp=0.65 / qpmin=0 / qpmax=69 / qpstep=4 / ip_ratio=1.25 / pb_ratio=1.20 / aq=1:0.60
Language : French
Default : Yes
Forced : No

Audio #1
ID : 2
Format : AC-3
Format/Info : Audio Coding 3
Format settings, Endianness : Big
Codec ID : A_AC3
Duration : 46 min 36 s
Bit rate mode : Constant
Bit rate : 192 kb/s
Channel(s) : 2 channels
Channel positions : Front: L R
Sampling rate : 48.0 kHz
Frame rate : 31.250 FPS (1536 spf)
Bit depth : 16 bits
Compression mode : Lossy
Stream size : 64.0 MiB (2%)
Title : ViruseProject
Language : Russian
Service kind : Complete Main
Default : Yes
Forced : No

Audio #2
ID : 3
Format : FLAC
Format/Info : Free Lossless Audio Codec
Codec ID : A_FLAC
Duration : 46 min 25 s
Bit rate mode : Variable
Bit rate : 482 kb/s
Channel(s) : 2 channels
Channel positions : Front: L R
Sampling rate : 48.0 kHz
Frame rate : 11.719 FPS (4096 spf)
Bit depth : 16 bits
Stream size : 160 MiB (5%)
Title : FLAC 2.0 @ 482 kbps
Writing library : libFLAC 1.2.1 (UTC 2007-09-17)
Language : French
Default : No
Forced : No

Text #1
ID : 4
Format : ASS
Codec ID : S_TEXT/ASS
Codec ID/Info : Advanced Sub Station Alpha
Duration : 45 min 47 s
Bit rate : 136 b/s
Count of elements : 646
Compression mode : Lossless
Stream size : 45.7 KiB (0%)
Title : ASS
Language : Russian
Default : No
Forced : No

Text #2
ID : 5
Format : UTF-8
Codec ID : S_TEXT/UTF8
Codec ID/Info : UTF-8 Plain Text
Duration : 45 min 47 s
Bit rate : 95 b/s
Count of elements : 646
Stream size : 31.9 KiB (0%)
Language : Russian
Default : No
Forced : No

Text #3
ID : 6
Format : UTF-8
Codec ID : S_TEXT/UTF8
Codec ID/Info : UTF-8 Plain Text
Duration : 45 min 51 s
Bit rate : 58 b/s
Count of elements : 645
Stream size : 19.6 KiB (0%)
Language : English
Default : No
Forced : No

Text #4
ID : 7
Format : UTF-8
Codec ID : S_TEXT/UTF8
Codec ID/Info : UTF-8 Plain Text
Duration : 45 min 51 s
Bit rate : 58 b/s
Count of elements : 645
Stream size : 19.8 KiB (0%)
Language : Dutch
Default : No
Forced : No

Text #5
ID : 8
Format : UTF-8
Codec ID : S_TEXT/UTF8
Codec ID/Info : UTF-8 Plain Text
Duration : 44 min 55 s
Bit rate : 68 b/s
Count of elements : 618
Stream size : 22.4 KiB (0%)
Language : French
Default : No
Forced : No

Text #6
ID : 9
Format : UTF-8
Codec ID : S_TEXT/UTF8
Codec ID/Info : UTF-8 Plain Text
Duration : 2 s 640 ms
Bit rate : 115 b/s
Count of elements : 1
Stream size : 38.0 Bytes (0%)
Title : Forced
Language : German
Default : No
Forced : No

Text #7
ID : 10
Format : UTF-8
Codec ID : S_TEXT/UTF8
Codec ID/Info : UTF-8 Plain Text
Duration : 44 min 10 s
Bit rate : 89 b/s
Count of elements : 622
Stream size : 28.9 KiB (0%)
Language : German
Default : No
Forced : No

Text #8
ID : 11
Format : UTF-8
Codec ID : S_TEXT/UTF8
Codec ID/Info : UTF-8 Plain Text
Duration : 45 min 51 s
Bit rate : 67 b/s
Count of elements : 645
Stream size : 22.6 KiB (0%)
Title : TV
Language : German
Default : No
Forced : No

Text #9
ID : 12
Format : UTF-8
Codec ID : S_TEXT/UTF8
Codec ID/Info : UTF-8 Plain Text
Duration : 45 min 23 s
Bit rate : 60 b/s
Count of elements : 411
Stream size : 20.2 KiB (0%)
Language : Romanian
Default : No
Forced : No

Menu
00:00:00.000 : en:00:00:00.000
00:02:52.720 : en:00:02:52.720
00:09:01.520 : en:00:09:01.520
00:19:52.520 : en:00:19:52.520
00:29:48.320 : en:00:29:48.320
00:40:31.400 : en:00:40:31.400
00:45:36.600 : en:00:45:36.600
скриншот  скриншот  скриншот  скриншот  
pb.wtf



Скачать Клирики через торрент https://i106.fastpic.ru/big/2018/1207/96/57a634351f3d34d0f82f0ffdc725bc96.jpg Скачать фильм Клирики через торрент бесплантно в хорошем качестве Описание: Париж, наши дни. Пятеро молодых людей, будущих священников, поступают в семинарию капуцинов, которым руководит обаятельный отец ... 10 10 2
Торрент: Зарегистрирован [2018-12-07 10:39] · скачан: 1 раз
Статус: √ проверено
Размер: 26.43 GB
Как cкачать? Как скачать Клирики через торрент | qTorrent

28-11-2019 20:33  

Отключить всю рекламу на сайте

    Дорогой пользователь! Огромная просьба, поблагодарите релизера, оцените раздачу и оставьте свои комментарий, если Вы скачали Клирики через торрент бесплатно! Внесите свою лепту в развитие PiratBit!
    Комментировать посты могут только пользователи прошедшие не сложную регистрацию
    Показать сообщения:    

    Клирики через торрент
    Скачать бесплатно Клирики
    Клирики скачать торрент
    Клирики смотреть онлайн
    Cкачать фильм Клирики бесплатно
    Клирики скачать торрент в хорошем качестве
    Клирики смотреть онлайн бесплатно в хорошем качестве


    Вы не можете начинать темы
    Вы не можете отвечать на сообщения
    Вы не можете редактировать свои сообщения
    Вы не можете удалять свои сообщения
    Вы не можете голосовать в опросах
    Вы не можете прикреплять файлы к сообщениям
    Вы можете скачивать файлы