новый адрес
Мега распродажа FORZA HORIZON 4 ULTIMATE+ВСЕ DLC+ОНЛАЙН всего за 499р. 349 руб. (супер цена). Внимание количество ограничено!!!

iTunes

1+1

iTunes

мы

iTunes

1

iTunes

Чернобыль

iTunes

Ральф против интернета

Лицензия

ПШазам

Лицензия

Игра престолов

Лицензия

30
pack

ВАЖНО

!!Акция!!

Alien_RageХит недели

RePack

Resident Evil 21

ИГРА 18+

pack

RePack

Metro:Exodus

!!Акция!!

Alien_Rage

RePack

fifa19

RePack

Assassins Creed: Odyssey

RePack

NEED FOR SPEED™ PAYBACK

3 сезон

9 сезон

Бесстыжие 9 сезон

Все сериалы

все сериалы на PB.wtf

RePack

FAR CRY 5
Ребята, катастрофически не хватает 1900р. для оплаты серверов за Октябрь (всвязи с блокировками трафик упал в 3 раза), 1-2р., выручайте.
  

Гулящая (Иван Кавалеридзе) [1961, СССР, драма, DVDRip от AVP Studio] pb.wtf

Гулящая через торрент pb.wtf

Размер: 1.09 GB | Добавлен: 11 мес. назад | Торрент скачан:4 раза
Скачать  

07-12-2018 13:06 Гулящая Скачать торрент  

Гулящая
Страна: СССР
Производство: Киностудия им. А. Довженко

Жанр: драма
Год выпуска: 1961
Продолжительность: 01:17:42

Перевод: Не требуется
Cубтитры: нет
Оригинальная аудиодорожка: русский

Режиссер: Иван Кавалеридзе

В ролях:
Людмила Гурченко, Рита Гладунко, Николай Козленко, Василий Векшин, Николай Пишванов, Павел Шкрёба, Степан Шкурат, Георгий Бабенко, Н. Маркина, Александр Гумбург, Пётр Михневич, Вера Родионова, Анна Николаева, Леонид Данчишин, Людмила Татьянчук...
Об актёрах подробней

Описание:
Рассказ о трагической судьбе крестьянской девушки Христины (Людмила Гурченко)... Все её беды начались с того, что полюбилась она сыну местного богача. Лицемерием и обманом выпроводил богач Христину из деревни и отдал в наймы своему приятелю купцу, живущему в городе. Тот, увлёкшись Христиной, убивает свою жену, а девушку одарив подарками, отправляет обратно в деревню. Вскоре Христину обвиняют в соучастии в убийстве.

Источник: DVD5 R5
Качество видео: DVDRip
Формат видео: AVI

Видео: 704х528 (4:3), 25 fps, XviD ~ 1806 kbps avg, 0.194 bit/pixel
Аудио: 48 kHz, Dolby Digital AC3 2.0, 192 kbps

Раздача от:
Общее
Полное имя : Gulyashchaya.1961.DVDRip_[New-team]_by_AVP_Studio.avi
Формат : AVI
Формат/Информация : Audio Video Interleave
Размер файла : 1,09 Гбайт
Продолжительность : 1 ч. 17 м.
Общий поток : 2008 Кбит/сек
Программа кодирования : VirtualDubMod 1.5.10.3 | www.virtualdub-fr.org || (build 2550/release)
Библиотека кодирования : VirtualDubMod build 2550/release

Видео
Идентификатор : 0
Формат : MPEG-4 Visual
Профиль формата : Advanced Simple@L5
Настройки формата : BVOP1 / Custom Matrix
Параметр BVOP формата : 1
Параметр QPel формата : Нет
Параметр GMC формата : Без точки перехода
Параметр матрицы формата : Выборочная
Идентификатор кодека : XVID
Идентификатор кодека/Подсказка : XviD
Продолжительность : 1 ч. 17 м.
Битрейт : 1806 Кбит/сек
Ширина : 704 пикселя
Высота : 528 пикселей
Соотношение сторон : 4:3
Частота кадров : 25,000 кадров/сек
Цветовое пространство : YUV
Субдискретизация насыщенности : 4:2:0
Битовая глубина : 8 бит
Тип развёртки : Прогрессивная
Метод сжатия : С потерями
Бит/(Пиксели*Кадры) : 0.194
Размер потока : 1004 Мбайт (90%)
Библиотека кодирования : XviD 73

Аудио
Идентификатор : 1
Формат : AC-3
Формат/Информация : Audio Coding 3
Коммерческое название : Dolby Digital
Идентификатор кодека : 2000
Продолжительность : 1 ч. 17 м.
Вид битрейта : Постоянный
Битрейт : 192 Кбит/сек
Каналы : 2 канала
Channel layout : L R
Частота : 48,0 КГц
Частота кадров : 31,250 кадров/сек (1536 SPF)
Битовая глубина : 16 бит
Метод сжатия : С потерями
Размер потока : 107 Мбайт (10%)
Выравнивание : Разделение по промежуткам
Продолжительность промежутка : 40 мс. (1,00 видеокадр)
Время предзагрузки промежутка : 500 мс
pb.wtf



Скачать Гулящая через торрент http://picplus.ru/img/1812/07/f06e4216.png Скачать фильм Гулящая через торрент бесплантно в хорошем качестве Описание:Рассказ о трагической судьбе крестьянской девушки Христины (Людмила Гурченко)... Все её беды начались с того, что полюбилась она ... 5 10 1
Торрент: Зарегистрирован [2018-12-07 13:06] · скачан: 4 раз
Статус: √ проверено
Размер: 1.09 GB
Как cкачать? Как скачать Гулящая через торрент | qTorrent

% Раздел Тема Автор DL S | L
Кино СССР [ 1.09 GB ] Гулящая [1961 СССР DVDRip-AVC от AVP Studio] AVP Studio Скачать
1 | 0
Зарубежные сериалы [ 13.97 GB ] Ученый гуляющий ночью / Scholar Who Walks the Night / Сезон: 1 / Серии 1 - 20 из 20 [2015 Вампиры Романтика Лайв-экшн HDTVRip] DVO GREEN TEA 2009Shaman Скачать
1 | 0
Eurodance, Technopop, Disco (сборники) (mp3) [ 746 MB ] VA - Новогодняя гулянка с хитами из девяностых 2014 / MP3 / 256 kbps / Pop Dance Disco megatoxa Скачать
1 | 0
Сборники отечественного шансона [ 677 MB ] VA - Новогодняя гулянка. Лучшие хиты шансона vol.2 2013 / MP3 / 256 kbps / Шансон soprano Скачать
1 | 0
Сборники отечественного шансона [ 681 MB ] VA - Новогодняя гулянка. Лучшие хиты шансона 2012 / MP3 / 256 kbps / Шансон soprano Скачать
1 | 0
Отечественная Поп музыка (сборники) (mp3) [ 700 MB ] VA - Веселая новогодняя гулянка 2012 2012 / MP3 / 256 kbps / Pop sergey82 Скачать
1 | 0
HD ролики [ 1006 MB ] Трахнул гулящую девку жестко / Tereza [2012 All Sex Blowjob Hardcore Teen HD 1080p] Azazele Скачать
1 | 0


>> Регистрируемся здесь <<






Отзывы и комментарии о схеме читаем и пишем здесь: ---> Отзывы и комментарии о схеме

Новые благодарочки в телеграм довольных пользователей:
скриншот   скриншот   скриншот   скриншот   скриншот
    Дорогой пользователь! Огромная просьба, поблагодарите релизера, оцените раздачу и оставьте свои комментарий, если Вы скачали Гулящая через торрент бесплатно! Внесите свою лепту в развитие PiratBit!
    Комментировать посты могут только пользователи прошедшие не сложную регистрацию
    Показать сообщения:    

    Гулящая через торрент
    Скачать бесплатно Гулящая
    Гулящая скачать торрент
    Гулящая смотреть онлайн
    Cкачать фильм Гулящая бесплатно
    Гулящая скачать торрент в хорошем качестве
    Гулящая смотреть онлайн бесплатно в хорошем качестве


    Вы не можете начинать темы
    Вы не можете отвечать на сообщения
    Вы не можете редактировать свои сообщения
    Вы не можете удалять свои сообщения
    Вы не можете голосовать в опросах
    Вы не можете прикреплять файлы к сообщениям
    Вы можете скачивать файлы