Ссылка на приватное зеркало всего за 1$. Внимание количество ограничено!!!

OK

1+1

iTunes

мы

OK

1

WEB-DLRip

Джокер

Пифагор

Ведьмак / The Witcher сериал

iTunes

ПШазам

ОК

Оно 2

iTunes

30
pack

Вам бонус

ВАЖНО

!!Акция!!

Alien_RageХит недели

RePack

Resident Evil 21

ИГРА 18+

pack

RePack

jed

RePack

fifa19

RePack

Assassins Creed: Odyssey

RePack

NEED FOR SPEED™ PAYBACK

4 сезон

9 сезон

Бесстыжие 9 сезон

Все сериалы

все сериалы на PB.wtf

RePack

FAR CRY 5
  

Парни из Бромли / The Bromley Boys (Стив Келли) [2018, комедия, WEB-DL 720p] MVO ["Синема УС"] pb.wtf

Парни из Бромли через торрент pb.wtf

Размер: 4.13 GB | Добавлен: 1 год 1 мес. назад | Торрент скачан:22 раза
Скачать  

07-12-2018 14:27 Парни из Бромли Скачать торрент  

Парни из Бромли / The Bromley Boys Год выпуска: 2018
Страна: Великобритания
Жанр: комедия
Продолжительность: 01:44:25
Перевод: Любительский (многоголосый) | "Синема УС"
Субтитры: отсутствуют

Режиссер: Стив Келли

rating

В ролях:

Брэнок О'Коннор, Джэми Формен, Алан Дейвис, Мартина МакКачон, Саванна Бейкер, Энтони Херберт, Марк Даймонд, Ивен Макинтош, Адам Дикон, Гарет Хейл

Описание:

Фильм повествует о самой плохой футбольной команде Великобритании.

Качество: WEB-DL 720p
Формат: MKV

Видео: h.264, 5 274 kb/s, 1280x480
Аудио#1: Русский, (AC3, 2 ch, 384 Кбит/с)
скриншот  скриншот  скриншот  

Общее
Уникальный идентификатор : 223267481605232696401678338219807575437 (0xA7F7C0BA540C386EA81DE12D3BD78D8D)
Полное имя : D:\The.Bromley.Boys.2018.P.WEB-DL.72Op_KOSHARA.mkv
Формат : Matroska
Версия формата : Version 2
Размер файла : 4,13 Гбайт
Продолжительность : 1 ч. 44 м.
Режим общего битрейта : Переменный
Общий поток : 5660 Кбит/сек
Дата кодирования : UTC 2018-12-05 20:04:14
Программа кодирования : mkvmerge v8.3.0 ('Over the Horizon') 64bit
Библиотека кодирования : libebml v1.3.1 + libmatroska v1.4.2

Видео
Идентификатор : 1
Формат : AVC
Формат/Информация : Advanced Video Codec
Профиль формата : High@L4.1
Параметр CABAC формата : Да
Параметр RefFrames формата : 4 кадра
Идентификатор кодека : V_MPEG4/ISO/AVC
Продолжительность : 1 ч. 44 м.
Вид битрейта : Переменный
Битрейт : 5274 Кбит/сек
Максимальный битрейт : 6000 Кбит/сек
Ширина : 1280 пикселей
Высота : 480 пикселей
Соотношение сторон : 2,667
Режим частоты кадров : Постоянный
Частота кадров : 23,976 (24000/1001) кадра/сек
Стандарт вещания : Component
Цветовое пространство : YUV
Субдискретизация насыщенности : 4:2:0
Битовая глубина : 8 бит
Тип развёртки : Прогрессивная
Бит/(Пиксели*Кадры) : 0.350
Размер потока : 3,77 Гбайт (91%)
Default : Да
Forced : Нет
Цветовой диапазон : Limited
Основные цвета : BT.709
Характеристики трансфера : BT.709
Коэффициенты матрицы : BT.709

Аудио
Идентификатор : 2
Формат : AC-3
Формат/Информация : Audio Coding 3
Расширение режима : CM (complete main)
Параметр Endianness формата : Big
Идентификатор кодека : A_AC3
Продолжительность : 1 ч. 44 м.
Вид битрейта : Постоянный
Битрейт : 384 Кбит/сек
Каналы : 2 канала
Расположение каналов : Front: L R
Частота : 48,0 КГц
Частота кадров : 31,250 кадров/сек (1536 spf)
Метод сжатия : С потерями
Размер потока : 287 Мбайт (7%)
Default : Да
Forced : Нет

pb.wtf



Скачать Парни из Бромли через торрент https://c.radikal.ru/c16/1812/d9/50861caa4efc.jpg Скачать фильм Парни из Бромли через торрент бесплантно в хорошем качестве Описание: Фильм повествует о самой плохой футбольной команде ... 10 10 4
Торрент: Зарегистрирован [2018-12-07 14:27] · скачан: 22 раз
Статус: T временная
Размер: 4.13 GB
Как cкачать? Как скачать Парни из Бромли через торрент | qTorrent

% Раздел Тема Автор DL S | L
T Фильмы (мультфильмы) cо спонсором показа (Новинки AVI/MKV) [ 1.37 GB ] Парни из Бромли / The Bromley Boys [2018 WEB-DLRip] MVO ["Синема УС"] bober100 Скачать
1 | 0

28-11-2019 20:33  

Отключить всю рекламу на сайте

    Дорогой пользователь! Огромная просьба, поблагодарите релизера, оцените раздачу и оставьте свои комментарий, если Вы скачали Парни из Бромли через торрент бесплатно! Внесите свою лепту в развитие PiratBit!
    Комментировать посты могут только пользователи прошедшие не сложную регистрацию
    Показать сообщения:    

    Парни из Бромли через торрент
    Скачать бесплатно Парни из Бромли
    Парни из Бромли скачать торрент
    Парни из Бромли смотреть онлайн
    Cкачать фильм Парни из Бромли бесплатно
    Парни из Бромли скачать торрент в хорошем качестве
    Парни из Бромли смотреть онлайн бесплатно в хорошем качестве


    Вы не можете начинать темы
    Вы не можете отвечать на сообщения
    Вы не можете редактировать свои сообщения
    Вы не можете удалять свои сообщения
    Вы не можете голосовать в опросах
    Вы не можете прикреплять файлы к сообщениям
    Вы можете скачивать файлы