Ссылка на приватное зеркало нашего сайта всего за 1$. Внимание количество ограничено!!!

2 сезон

iTunes

1 сезон

1

iTunes

iTunes

iTunes

1 сезон

RePack

30

ИГРА 18+

pack

ВАЖНО

!!Акция!!

Alien_RageХит недели

RePack

MK11
pack

Забери бонус

RePack

jed

!!Акция!!

Alien_Rage

RePack

fifa19

RePack

Assassins Creed: Odyssey

RePack

NEED FOR SPEED™ PAYBACK

4 сезон

9 сезон

Бесстыжие 9 сезон

Все сериалы

все сериалы на PB.wtf

RePack

FAR CRY 5
  

Красная лента / Серии: 1-2 из 2 (Станислав Рубенчик) [2018, Криминал, мелодрама, SATRip] pb.wtf

Красная лента через торрент pb.wtf

Размер: 1.14 GB | Добавлен: 1 год 10 мес. назад | Торрент скачан:30 раз
Скачать  

07-12-2018 14:39 Красная лента Скачать торрент  

Красная лентаГод выпуска: 2018
Страна: Россия
Жанр: Криминал, мелодрама
Продолжительность: ~ 00:45:00
Субтитры: отсутствуют

Режиссер: Станислав Рубенчик

В ролях:

Елена Полякова, Кирилл Гребенщиков, Андрей Заводюк, Жанна Эппле, Алексей Рыжков, Андрей Фролов (II)

Описание:

Ника – самая востребованная актриса России. Она получает сумасшедшие гонорары, а её поклонники стоят в очередях, чтобы получить автограф. Она стала законодательницей моды и сделала трендом чёрную водолазку, закрывающую её от запястий до подбородка. Кажется, её жизнь похожа на сказку… Но на самом деле это – фильм ужасов. В 15 лет девушку похитил неизвестный и несколько месяцев держал в плену. Полиция вроде бы нашла маньяка, и он сидит в тюрьме… Вот только Ника уверена, что её враг до сих пор на свободе. Эти страхи никто не воспринимает всерьёз, пока в лесу не находят труп девушки в белом платье с красным поясом – именно в такой одежде когда-то нашли полуживую Нику…

Качество: SATRip
Формат: AVI

Видео: XviD, ~ 1650 Кбит/с, 720x400
Аудио: MP3, 2 ch, 192 Кбит/с
скриншот  скриншот  скриншот  скриншот  

Общее
Полное имя : D:\Krasnaya.lenta.2018.XviD.SATRip.25Kuzmich\Krasnaya.lenta.(01.seriya.iz.02).XviD.SATRip.25Kuzmich.avi
Формат : AVI
Формат/Информация : Audio Video Interleave
Размер файла : 586 Мбайт
Продолжительность : 44 м. 12 с.
Общий поток : 1852 Кбит/сек
Программа кодирования : VirtualDubMod 1.5.10.3 | www.virtualdub-fr.org || (build 2550/release)
Библиотека кодирования : VirtualDubMod build 2550/release

Видео
Идентификатор : 0
Формат : MPEG-4 Visual
Профиль формата : Advanced Simple@L5
Параметр BVOP формата : 1
Параметр QPel формата : Нет
Параметр GMC формата : Без точки перехода
Параметр матрицы формата : Default (MPEG)
Идентификатор кодека : XVID
Идентификатор кодека/Подсказка : XviD
Продолжительность : 44 м. 12 с.
Битрейт : 1650 Кбит/сек
Ширина : 720 пикселей
Высота : 400 пикселей
Соотношение сторон : 16:9
Частота кадров : 25,000 кадров/сек
Цветовое пространство : YUV
Субдискретизация насыщенности : 4:2:0
Битовая глубина : 8 бит
Тип развёртки : Прогрессивная
Метод сжатия : С потерями
Бит/(Пиксели*Кадры) : 0.229
Размер потока : 522 Мбайт (89%)
Библиотека кодирования : XviD 1.2.1 (UTC 2008-12-04)

Аудио
Идентификатор : 1
Формат : MPEG Audio
Версия формата : Version 1
Профиль формата : Layer 3
Режим : Joint stereo
Идентификатор кодека : 55
Идентификатор кодека/Подсказка : MP3
Продолжительность : 44 м. 12 с.
Вид битрейта : Постоянный
Битрейт : 192 Кбит/сек
Каналы : 2 канала
Частота : 48,0 КГц
Метод сжатия : С потерями
Размер потока : 60,7 Мбайт (10%)
Выравнивание : Соединение по промежуткам
Продолжительность промежутка : 40 мс. (1,00 видеокадр)
Время предзагрузки промежутка : 504 мс.
Библиотека кодирования : LAME3.99r
Настройки программы : -m j -V 4 -q 2 -lowpass 18.6 -b 192

pb.wtf



Скачать Красная лента через торрент https://i108.fastpic.ru/big/2018/1207/ab/49749c67cc9a4045e5de932983529dab.jpg Скачать фильм Красная лента через торрент бесплантно в хорошем качестве Описание: Ника – самая востребованная актриса России. Она получает сумасшедшие гонорары, а её поклонники стоят в очередях, чтобы получить ... 10 10 7
Торрент: Зарегистрирован [2018-12-07 14:39] · скачан: 30 раз
Статус: √ проверено
Размер: 1.14 GB
Как cкачать? Как скачать Красная лента через торрент | qTorrent

% Раздел Тема Автор DL S | L
Наши сериалы [ 3.31 GB ] Красная лента / Серии: 1-2 из 2 [2018 WEB-DL 1080p] bober100 Скачать
1 | 0
Наши сериалы [ 1.11 GB ] Красная лента / Серии: 1-2 из 2 [2018 WEB-DLRip] bober100 Скачать
1 | 0
Наши сериалы [ 1.11 GB ] Красная лента / Серии: 1-2 из 2 [2018 WEB-DLRip-AVC] bober100 Скачать
1 | 0
Наши сериалы [ 1.12 GB ] Красная лента / Серии: 1-2 из 2 [2018 SATRip-AVC] aleksan55 Скачать
1 | 0

28-11-2019 20:33  

Отключить всю рекламу на сайте

    Дорогой пользователь! Огромная просьба, поблагодарите релизера, оцените раздачу и оставьте свои комментарий, если Вы скачали Красная лента через торрент бесплатно! Внесите свою лепту в развитие PiratBit!
    Комментировать посты могут только пользователи прошедшие не сложную регистрацию
    Показать сообщения:    

    Красная лента через торрент
    Скачать бесплатно Красная лента
    Красная лента скачать торрент
    Красная лента смотреть онлайн
    Cкачать фильм Красная лента бесплатно
    Красная лента скачать торрент в хорошем качестве
    Красная лента смотреть онлайн бесплатно в хорошем качестве


    Вы не можете начинать темы
    Вы не можете отвечать на сообщения
    Вы не можете редактировать свои сообщения
    Вы не можете удалять свои сообщения
    Вы не можете голосовать в опросах
    Вы не можете прикреплять файлы к сообщениям
    Вы можете скачивать файлы