Ссылка на приватное зеркало всего за 1$. Внимание количество ограничено!!!

OK

1+1

iTunes

мы

OK

1

WEB-DLRip

Джокер

Пифагор

Ведьмак / The Witcher сериал

iTunes

ПШазам

ОК

Оно 2

iTunes

30
pack

Вам бонус

ВАЖНО

!!Акция!!

Alien_RageХит недели

RePack

Resident Evil 21

ИГРА 18+

pack

RePack

jed

RePack

fifa19

RePack

Assassins Creed: Odyssey

RePack

NEED FOR SPEED™ PAYBACK

4 сезон

9 сезон

Бесстыжие 9 сезон

Все сериалы

все сериалы на PB.wtf

RePack

FAR CRY 5
  

Тайный Санта / Secret Santa (Адам Маркус) [2018 г., ужасы, WEB-DLRip] MVO ["Синема УС"] pb.wtf

Тайный Санта через торрент pb.wtf

Размер: 1.37 GB | Добавлен: 1 год 1 мес. назад | Торрент скачан:52 раза
Скачать  

07-12-2018 21:11 Тайный Санта Скачать торрент  

Тайный Санта / Secret Santa
Год выпуска: 2018
Страна: США
Жанр: Ужасы
Продолжительность: 01:31:32
Перевод: Любительский (многоголосый) - "Синема УС"

Режиссер: Адам Маркус

rating

В ролях: Майкл Рэди, Дрю Линч, Дебра Салливан, А Лесли Кис, Райан Ситон, Джон Гилберт, Пэт Дестро, Нэйтан Хедрик, Мишель Рени Аллер, Кертис Дж. Фортье

Описание: Семья главы фармацевтической компании собралась на Рождество, чтобы поиграть в Тайного Санту. Но неизвестный добавил химическое вещество военного образца им в пунш, и теперь члены семьи должны пережить ночь, спасаясь от жертв экспериментального препарата.
Качество: WEB-DLRip
Формат: AVI
Видео кодек: XviD
Аудио кодек: AC3
Видео: XviD, 1745 Кбит/с, 720x304
Аудиo: Русский, AC3, 2 ch, 384 Кбит/с

Видео
Идентификатор : 0
Формат : MPEG-4 Visual
Профиль формата : Advanced Simple@L5
Настройки формата : BVOP2 / Custom Matrix
Параметр BVOP формата : 2
Параметр QPel формата : Нет
Параметр GMC формата : Без точки перехода
Параметр матрицы формата : Выборочная
Идентификатор кодека : XVID
Идентификатор кодека/Подсказка : XviD
Продолжительность : 1 ч. 31 м.
Битрейт : 1745 Кбит/сек
Ширина : 720 пикселей
Высота : 304 пикселя
Соотношение сторон : 2,35:1
Частота кадров : 23,976 (24000/1001) кадра/сек
Цветовое пространство : YUV
Субдискретизация насыщенности : 4:2:0
Битовая глубина : 8 бит
Тип развёртки : Прогрессивная
Метод сжатия : С потерями
Бит/(Пиксели*Кадры) : 0.332
Размер потока : 1,12 Гбайт (82%)
Библиотека кодирования : XviD 1.2.1 (UTC 2008-12-04)

Аудио
Идентификатор : 1
Формат : AC-3
Формат/Информация : Audio Coding 3
Коммерческое название : Dolby Digital
Идентификатор кодека : 2000
Продолжительность : 1 ч. 31 м.
Вид битрейта : Постоянный
Битрейт : 384 Кбит/сек
Каналы : 2 канала
Channel layout : L R
Частота : 48,0 КГц
Частота кадров : 31,250 кадров/сек (1536 SPF)
Битовая глубина : 16 бит
Метод сжатия : С потерями
Размер потока : 251 Мбайт (18%)
Выравнивание : Разделение по промежуткам
Продолжительность промежутка : 42 мс. (1,00 видеокадр)
Время предзагрузки промежутка : 500 мс.
ServiceKind/String : Complete Main

скриншот   скриншот   скриншот   скриншот   скриншот  

Присутствуют вставки голосовой и текстовой рекламы!pb.wtf



Скачать Тайный Санта через торрент http://pic1.kartinco.top/images/12/3vs3e.jpg Скачать фильм Тайный Санта через торрент бесплантно в хорошем качестве Описание: Семья главы фармацевтической компании собралась на Рождество, чтобы поиграть в Тайного Санту. Но неизвестный добавил химическое ... 10 10 3
Торрент: Зарегистрирован [2018-12-07 21:11] · скачан: 52 раз
Статус: T временная
Размер: 1.37 GB
Как cкачать? Как скачать Тайный Санта через торрент | qTorrent

% Раздел Тема Автор DL S | L
T Фильмы (мультфильмы) cо спонсором показа (Новинки AVI/MKV) [ 3.14 GB ] Тайный Санта / Secret Santa [2018 WEB-DL 720p] MVO ["Синема УС"] bober100 Скачать
1 | 0

28-11-2019 20:33  

Отключить всю рекламу на сайте

    Дорогой пользователь! Огромная просьба, поблагодарите релизера, оцените раздачу и оставьте свои комментарий, если Вы скачали Тайный Санта через торрент бесплатно! Внесите свою лепту в развитие PiratBit!
    Комментировать посты могут только пользователи прошедшие не сложную регистрацию
    Показать сообщения:    

    Тайный Санта через торрент
    Скачать бесплатно Тайный Санта
    Тайный Санта скачать торрент
    Тайный Санта смотреть онлайн
    Cкачать фильм Тайный Санта бесплатно
    Тайный Санта скачать торрент в хорошем качестве
    Тайный Санта смотреть онлайн бесплатно в хорошем качестве


    Вы не можете начинать темы
    Вы не можете отвечать на сообщения
    Вы не можете редактировать свои сообщения
    Вы не можете удалять свои сообщения
    Вы не можете голосовать в опросах
    Вы не можете прикреплять файлы к сообщениям
    Вы можете скачивать файлы