Ссылка на приватное зеркало всего за 1$. Внимание количество ограничено!!!

OK

1+1

iTunes

мы

OK

1

WEB-DLRip

Джокер

Пифагор

Ведьмак / The Witcher сериал

iTunes

ПШазам

ОК

Оно 2

iTunes

30
pack

Вам бонус

ВАЖНО

!!Акция!!

Alien_RageХит недели

RePack

Resident Evil 21

ИГРА 18+

pack

RePack

jed

RePack

fifa19

RePack

Assassins Creed: Odyssey

RePack

NEED FOR SPEED™ PAYBACK

4 сезон

9 сезон

Бесстыжие 9 сезон

Все сериалы

все сериалы на PB.wtf

RePack

FAR CRY 5
  

Толстые приятели / Pang zi xing dong dui / Fat Buddies (Бао Бэйэр) [2018, комедия, мелодрама, TS 720] MVO [КОЛОБОК] pb.wtf

Толстые приятели через торрент pb.wtf

Размер: 3.54 GB | Добавлен: 1 год 1 мес. назад | Торрент скачан:21 раз
Скачать  

08-12-2018 04:25 Толстые приятели Скачать торрент  

Толстые приятели / Pang zi xing dong dui / Fat BuddiesГод выпуска: 2018
Страна: Китай
Жанр: комедия, мелодрама
Продолжительность: 01:42:34
Перевод: Любительский (многоголосый) | КОЛОБОК
Субтитры: корейские (вшитые)

Режиссер: Бао Бэйэр

rating

В ролях:

Бао Бэйэр, Вэнь Чжан, Го Цзинфэй, Рю Кохата, Ясуаки Курата, Ци Юу, Сун Цзя, Сюй Цзюньцун, Цзэн Ицзюнь

Описание:

Во время выполнения опасного задания гонконгский спецагент набрал немного лишнего веса и оказался в японской клинике для похудения. Там он находит себе напарника - такого же «худышку»-охранника - чтобы в приятной компании выследить и прижать членов наркокартеля.

Качество: TS 720
Формат: MKV

Видео: 4 551 Кбит/с, 1280x528
Аудио#1: Русский, (AC3, 2 ch, 384 Кбит/с)
скриншот  скриншот  скриншот  

Общее
Уникальный идентификатор : 235717415013119901232177614212785691723 (0xB15585D62340C30AB329A26516E6DC4B)
Полное имя : D:\Fat.Buddies.2o18.Pk.WEBRip.72Op.mkv
Формат : Matroska
Версия формата : Version 2
Размер файла : 3,54 Гбайт
Продолжительность : 1 ч. 42 м.
Режим общего битрейта : Переменный
Общий поток : 4937 Кбит/сек
Дата кодирования : UTC 2018-12-03 14:19:06
Программа кодирования : mkvmerge v8.3.0 ('Over the Horizon') 64bit
Библиотека кодирования : libebml v1.3.1 + libmatroska v1.4.2

Видео
Идентификатор : 1
Формат : AVC
Формат/Информация : Advanced Video Codec
Профиль формата : High@L4.1
Параметр CABAC формата : Да
Параметр RefFrames формата : 4 кадра
Идентификатор кодека : V_MPEG4/ISO/AVC
Продолжительность : 1 ч. 42 м.
Вид битрейта : Переменный
Битрейт : 4551 Кбит/сек
Максимальный битрейт : 5000 Кбит/сек
Ширина : 1280 пикселей
Высота : 528 пикселей
Соотношение сторон : 2,40:1
Режим частоты кадров : Постоянный
Частота кадров : 23,976 (24000/1001) кадра/сек
Стандарт вещания : Component
Цветовое пространство : YUV
Субдискретизация насыщенности : 4:2:0
Битовая глубина : 8 бит
Тип развёртки : Прогрессивная
Бит/(Пиксели*Кадры) : 0.275
Размер потока : 3,19 Гбайт (90%)
Default : Да
Forced : Нет
Цветовой диапазон : Limited
Основные цвета : BT.709
Характеристики трансфера : BT.709
Коэффициенты матрицы : BT.709

Аудио
Идентификатор : 2
Формат : AC-3
Формат/Информация : Audio Coding 3
Расширение режима : CM (complete main)
Параметр Endianness формата : Big
Идентификатор кодека : A_AC3
Продолжительность : 1 ч. 42 м.
Вид битрейта : Постоянный
Битрейт : 384 Кбит/сек
Каналы : 2 канала
Расположение каналов : Front: L R
Частота : 48,0 КГц
Частота кадров : 31,250 кадров/сек (1536 spf)
Метод сжатия : С потерями
Размер потока : 282 Мбайт (8%)
Default : Да
Forced : Нет

pb.wtf



Скачать Толстые приятели через торрент https://b.radikal.ru/b12/1812/2d/0af0fd830a95.jpg Скачать фильм Толстые приятели через торрент бесплантно в хорошем качестве Описание: Во время выполнения опасного задания гонконгский спецагент набрал немного лишнего веса и оказался в японской клинике для ... 10 10 2
Торрент: Зарегистрирован [2018-12-08 04:25] · скачан: 21 раз
Статус: T временная
Размер: 3.54 GB
Как cкачать? Как скачать Толстые приятели через торрент | qTorrent

% Раздел Тема Автор DL S | L
T Фильмы (мультфильмы) cо спонсором показа (Новинки AVI/MKV) [ 1.37 GB ] Толстые приятели / Pang zi xing dong dui / Fat Buddies [2018 TS] MVO [КОЛОБОК] bober100 Скачать
1 | 0

28-11-2019 20:33  

Отключить всю рекламу на сайте

    Дорогой пользователь! Огромная просьба, поблагодарите релизера, оцените раздачу и оставьте свои комментарий, если Вы скачали Толстые приятели через торрент бесплатно! Внесите свою лепту в развитие PiratBit!
    Комментировать посты могут только пользователи прошедшие не сложную регистрацию
    Показать сообщения:    

    Толстые приятели через торрент
    Скачать бесплатно Толстые приятели
    Толстые приятели скачать торрент
    Толстые приятели смотреть онлайн
    Cкачать фильм Толстые приятели бесплатно
    Толстые приятели скачать торрент в хорошем качестве
    Толстые приятели смотреть онлайн бесплатно в хорошем качестве


    Вы не можете начинать темы
    Вы не можете отвечать на сообщения
    Вы не можете редактировать свои сообщения
    Вы не можете удалять свои сообщения
    Вы не можете голосовать в опросах
    Вы не можете прикреплять файлы к сообщениям
    Вы можете скачивать файлы