Ссылка на приватное зеркало всего за 1$. Внимание количество ограничено!!!

OK

1+1

iTunes

мы

OK

1

WEB-DLRip

Джокер

Пифагор

Ведьмак / The Witcher сериал

Лицензия

ПШазам

ОК

Оно 2

iTunes

30
pack

Вам бонус

ВАЖНО

!!Акция!!

Alien_RageХит недели

RePack

Resident Evil 21

ИГРА 18+

pack

RePack

jed

!!Акция!!

Alien_Rage

RePack

fifa19

RePack

Assassins Creed: Odyssey

RePack

NEED FOR SPEED™ PAYBACK

4 сезон

9 сезон

Бесстыжие 9 сезон

Все сериалы

все сериалы на PB.wtf

RePack

FAR CRY 5
  

Тайный Санта / Secret Santa (Адам Маркус) [2018, Ужасы, WEB-DL 720p] MVO ["Синема УС"] pb.wtf

Тайный Санта через торрент pb.wtf

Размер: 3.14 GB | Добавлен: 1 год 1 мес. назад | Торрент скачан:41 раз
Скачать  

08-12-2018 05:01 Тайный Санта Скачать торрент  

Тайный Санта / Secret SantaГод выпуска: 2018
Страна: США
Жанр: Ужасы
Продолжительность: 01:31:32
Перевод: Любительский (многоголосый) | "Синема УС"
Субтитры: отсутствуют

Режиссер: Адам Маркус

rating

В ролях:

Майкл Рэди, Дрю Линч, Дебра Салливан, А Лесли Кис, Райан Ситон, Джон Гилберт, Пэт Дестро, Нэйтан Хедрик, Мишель Рени Аллер, Кертис Дж. Фортье

Описание:

Семья главы фармацевтической компании собралась на Рождество, чтобы поиграть в Тайного Санту. Но неизвестный добавил химическое вещество военного образца им в пунш, и теперь члены семьи должны пережить ночь, спасаясь от жертв экспериментального препарата.

Качество: WEB-DL 720p
Формат: MKV

Видео: h.264,4 523 kb/s, 1280x536
Аудио#1: Русский, (AC3, 2 ch, 384 Кбит/с)
скриншот  скриншот  скриншот  

Общее
Уникальный идентификатор : 225469039730188293195584673379449381407 (0xA99FC1EC7E7016069A0B3CE91E01221F)
Полное имя : D:\Secret.Santa.2018.P.WEB-DL.72Op_KOSHARA.mkv
Формат : Matroska
Версия формата : Version 2
Размер файла : 3,14 Гбайт
Продолжительность : 1 ч. 31 м.
Режим общего битрейта : Переменный
Общий поток : 4909 Кбит/сек
Дата кодирования : UTC 2018-12-07 18:43:54
Программа кодирования : mkvmerge v8.3.0 ('Over the Horizon') 64bit
Библиотека кодирования : libebml v1.3.1 + libmatroska v1.4.2

Видео
Идентификатор : 1
Формат : AVC
Формат/Информация : Advanced Video Codec
Профиль формата : High@L4.1
Параметр CABAC формата : Да
Параметр RefFrames формата : 4 кадра
Идентификатор кодека : V_MPEG4/ISO/AVC
Продолжительность : 1 ч. 31 м.
Вид битрейта : Переменный
Битрейт : 4523 Кбит/сек
Максимальный битрейт : 5000 Кбит/сек
Ширина : 1280 пикселей
Высота : 536 пикселей
Соотношение сторон : 2,40:1
Режим частоты кадров : Постоянный
Частота кадров : 23,976 (24000/1001) кадра/сек
Стандарт вещания : Component
Цветовое пространство : YUV
Субдискретизация насыщенности : 4:2:0
Битовая глубина : 8 бит
Тип развёртки : Прогрессивная
Бит/(Пиксели*Кадры) : 0.269
Размер потока : 2,83 Гбайт (90%)
Default : Да
Forced : Нет
Цветовой диапазон : Limited
Основные цвета : BT.709
Характеристики трансфера : BT.709
Коэффициенты матрицы : BT.709

Аудио
Идентификатор : 2
Формат : AC-3
Формат/Информация : Audio Coding 3
Расширение режима : CM (complete main)
Параметр Endianness формата : Big
Идентификатор кодека : A_AC3
Продолжительность : 1 ч. 31 м.
Вид битрейта : Постоянный
Битрейт : 384 Кбит/сек
Каналы : 2 канала
Расположение каналов : Front: L R
Частота : 48,0 КГц
Частота кадров : 31,250 кадров/сек (1536 spf)
Метод сжатия : С потерями
Размер потока : 251 Мбайт (8%)
Default : Да
Forced : Нет

pb.wtf



Скачать Тайный Санта через торрент https://b.radikal.ru/b37/1812/94/4a894aacafe1.jpg Скачать фильм Тайный Санта через торрент бесплантно в хорошем качестве Описание: Семья главы фармацевтической компании собралась на Рождество, чтобы поиграть в Тайного Санту. Но неизвестный добавил химическое ... 10 10 4
Торрент: Зарегистрирован [2018-12-08 05:01] · скачан: 41 раз
Статус: T временная
Размер: 3.14 GB
Как cкачать? Как скачать Тайный Санта через торрент | qTorrent

% Раздел Тема Автор DL S | L
T Фильмы (мультфильмы) cо спонсором показа (Новинки AVI/MKV) [ 1.37 GB ] Тайный Санта / Secret Santa [2018 WEB-DLRip] MVO ["Синема УС"] Леонид Ильич Скачать
1 | 0

28-11-2019 20:33  

Отключить всю рекламу на сайте

    Дорогой пользователь! Огромная просьба, поблагодарите релизера, оцените раздачу и оставьте свои комментарий, если Вы скачали Тайный Санта через торрент бесплатно! Внесите свою лепту в развитие PiratBit!
    Комментировать посты могут только пользователи прошедшие не сложную регистрацию
    Показать сообщения:    

    Тайный Санта через торрент
    Скачать бесплатно Тайный Санта
    Тайный Санта скачать торрент
    Тайный Санта смотреть онлайн
    Cкачать фильм Тайный Санта бесплатно
    Тайный Санта скачать торрент в хорошем качестве
    Тайный Санта смотреть онлайн бесплатно в хорошем качестве


    Вы не можете начинать темы
    Вы не можете отвечать на сообщения
    Вы не можете редактировать свои сообщения
    Вы не можете удалять свои сообщения
    Вы не можете голосовать в опросах
    Вы не можете прикреплять файлы к сообщениям
    Вы можете скачивать файлы