Ссылка на приватное зеркало всего за 1$. Внимание количество ограничено!!!

OK

1+1

iTunes

мы

OK

1

WEB-DLRip

Джокер

Пифагор

Ведьмак / The Witcher сериал

iTunes

ПШазам

ОК

Оно 2

iTunes

30
pack

Вам бонус

ВАЖНО

!!Акция!!

Alien_RageХит недели

RePack

Resident Evil 21

ИГРА 18+

pack

RePack

jed

RePack

fifa19

RePack

Assassins Creed: Odyssey

RePack

NEED FOR SPEED™ PAYBACK

4 сезон

9 сезон

Бесстыжие 9 сезон

Все сериалы

все сериалы на PB.wtf

RePack

FAR CRY 5
  

Рождество во дворце / Christmas at the Palace (Джо Боткин) [2018, Мелодрама, HDTVRip 720p] MVO [AlphaProject] pb.wtf

Рождество во дворце через торрент pb.wtf

Размер: 2.9 GB | Добавлен: 1 год 1 мес. назад | Торрент скачан:26 раз
Скачать  

08-12-2018 05:22 Рождество во дворце Скачать торрент  

Рождество во дворце / Christmas at the PalaceГод выпуска: 2018
Страна: США
Жанр: Мелодрама
Продолжительность: 01:25:28
Перевод: Любительский (многоголосый) | AlphaProject
Субтитры: отсутствуют

Режиссер: Джо Боткин

rating

В ролях:

Мерритт Паттерсон, Эндрю Купер, Бриттани Бристоу, Индия Фаулер, Николас Бэнкс, Джеральдин Фицджералд, Антонио Аакил, Эш Аллади, Джеральдин Фитцджеральд, Риз Гриффин

Описание:

Король Сен Сеновии Александр нанимает Кэти, бывшую профессиональную фигуристку, чтобы она помогла его дочери поставить рождественское ледовое представление. Кэти проводит время во дворце и понимает, что влюбляется в короля, он отвечает ей тем же. Но позволит ли народ Сен Сеновии сделать иностранку своей королевой?

Качество: HDTVRip 720p
Формат: MKV

Видео: h.264,4 440 kb/s, 1280x720
Аудио#1: Русский, (AC3, 2 ch, 384 Кбит/с)
скриншот  скриншот  скриншот  

Общее
Уникальный идентификатор : 243450248757378274115037551496314162334 (0xB726CFF9C6C32014A729C30B49C30C9E)
Полное имя : D:\Christmas.at.the.Palace.2018.Pa.HDTV.72Op_KOSHARA.mkv
Формат : Matroska
Версия формата : Version 2
Размер файла : 2,90 Гбайт
Продолжительность : 1 ч. 25 м.
Режим общего битрейта : Переменный
Общий поток : 4826 Кбит/сек
Дата кодирования : UTC 2018-12-07 20:37:48
Программа кодирования : mkvmerge v8.3.0 ('Over the Horizon') 64bit
Библиотека кодирования : libebml v1.3.1 + libmatroska v1.4.2

Видео
Идентификатор : 1
Формат : AVC
Формат/Информация : Advanced Video Codec
Профиль формата : High@L4.1
Параметр CABAC формата : Да
Параметр RefFrames формата : 4 кадра
Идентификатор кодека : V_MPEG4/ISO/AVC
Продолжительность : 1 ч. 25 м.
Вид битрейта : Переменный
Битрейт : 4440 Кбит/сек
Максимальный битрейт : 5000 Кбит/сек
Ширина : 1280 пикселей
Высота : 720 пикселей
Соотношение сторон : 16:9
Режим частоты кадров : Постоянный
Частота кадров : 23,976 (24000/1001) кадра/сек
Стандарт вещания : Component
Цветовое пространство : YUV
Субдискретизация насыщенности : 4:2:0
Битовая глубина : 8 бит
Тип развёртки : Прогрессивная
Бит/(Пиксели*Кадры) : 0.197
Размер потока : 2,61 Гбайт (90%)
Default : Да
Forced : Нет
Цветовой диапазон : Limited
Основные цвета : BT.709
Характеристики трансфера : BT.709
Коэффициенты матрицы : BT.709

Аудио
Идентификатор : 2
Формат : AC-3
Формат/Информация : Audio Coding 3
Расширение режима : CM (complete main)
Параметр Endianness формата : Big
Идентификатор кодека : A_AC3
Продолжительность : 1 ч. 25 м.
Вид битрейта : Постоянный
Битрейт : 384 Кбит/сек
Каналы : 2 канала
Расположение каналов : Front: L R
Частота : 48,0 КГц
Частота кадров : 31,250 кадров/сек (1536 spf)
Метод сжатия : С потерями
Размер потока : 236 Мбайт (8%)
Default : Да
Forced : Нет

pb.wtf



Скачать Рождество во дворце через торрент http://img14.lostpic.net/2018/12/08/501328c4bcedadca85424e5997a960fe.jpg Скачать фильм Рождество во дворце через торрент бесплантно в хорошем качестве Описание: Король Сен Сеновии Александр нанимает Кэти, бывшую профессиональную фигуристку, чтобы она помогла его дочери поставить ... 10 10 2
Торрент: Зарегистрирован [2018-12-08 05:22] · скачан: 26 раз
Статус: T временная
Размер: 2.9 GB
Как cкачать? Как скачать Рождество во дворце через торрент | qTorrent

% Раздел Тема Автор DL S | L
T Фильмы (мультфильмы) cо спонсором показа (Новинки AVI/MKV) [ 1.37 GB ] Рождество во дворце / Christmas at the Palace [2018 Мело HDTVRip] MVO [AlphaProject] bober100 Скачать
1 | 0

28-11-2019 20:33  

Отключить всю рекламу на сайте

    Дорогой пользователь! Огромная просьба, поблагодарите релизера, оцените раздачу и оставьте свои комментарий, если Вы скачали Рождество во дворце через торрент бесплатно! Внесите свою лепту в развитие PiratBit!
    Комментировать посты могут только пользователи прошедшие не сложную регистрацию
    Показать сообщения:    

    Рождество во дворце через торрент
    Скачать бесплатно Рождество во дворце
    Рождество во дворце скачать торрент
    Рождество во дворце смотреть онлайн
    Cкачать фильм Рождество во дворце бесплатно
    Рождество во дворце скачать торрент в хорошем качестве
    Рождество во дворце смотреть онлайн бесплатно в хорошем качестве


    Вы не можете начинать темы
    Вы не можете отвечать на сообщения
    Вы не можете редактировать свои сообщения
    Вы не можете удалять свои сообщения
    Вы не можете голосовать в опросах
    Вы не можете прикреплять файлы к сообщениям
    Вы можете скачивать файлы