Ссылка на приватное зеркало всего за 1$. Внимание количество ограничено!!!

iTunes

iTunes

iTunes

1

iTunes

iTunes

iTunes

WEBRip

iTunes

30
pack

$ от Little Big

ВАЖНО

!!Акция!!

Alien_RageХит недели

RePack

Resident Evil 21

ИГРА 18+

pack

RePack

jed

!!Акция!!

Alien_Rage

RePack

fifa19

RePack

Assassins Creed: Odyssey

RePack

NEED FOR SPEED™ PAYBACK

4 сезон

9 сезон

Бесстыжие 9 сезон

Все сериалы

все сериалы на PB.wtf

RePack

FAR CRY 5
  

Это всё Изи / Alles Isy (Марк Монхайм) [2018, драма, HDTVRip 720p] MVO ["Синема УС"] pb.wtf

Это всё Изи через торрент pb.wtf

Размер: 3.07 GB | Добавлен: 1 год 8 мес. назад | Торрент скачан:37 раз
Скачать  

08-12-2018 07:12 Это всё Изи Скачать торрент  

Это всё Изи / Alles IsyГод выпуска: 2018
Страна: Германия
Жанр: драма
Продолжительность: 01:30:54
Перевод: Любительский (многоголосый) | "Синема УС"
Субтитры: отсутствуют

Режиссер: Марк Монхайм

rating

В ролях:

Клаудия Михельсен, Клаудия Мехнерт, Ганс Лёв, Милена Чарнтке, Микеланджело Фортуцци, Людвиг Симон, Якоб Шмидт, Руна Грайнер, Тижан Фишер, Катарина Шпиринг

Описание:

Йонас безнадежно влюблен в Изабель, но ей нравится другой парень. Однажды на молодежной вечеринке Изи, наглотавшись наркотиков, теряет контроль над собой и Йонас с друзьями этим воспользовался. Наутро Изи почти ничего не может вспомнить, однако её гинеколог устанавливает, что её изнасиловали, причем несколько человек. Изи и её мать пытаются установить, кто же это был.

Качество: HDTVRip 720p
Формат: MKV

Видео: h.264, 4 454 kb/s, 1280x720
Аудио#1: Русский, (AC3, 2 ch, 384 Кбит/с)
скриншот  скриншот  скриншот  

Общее
Уникальный идентификатор : 243214249591412155907419063611373442444 (0xB6F95C518679449C9F63AFE12C60D58C)
Полное имя : D:\Alles.Isy.2O18.P.WEB-DL.72Op_KOSHARA.mkv
Формат : Matroska
Версия формата : Version 2
Размер файла : 3,07 Гбайт
Продолжительность : 1 ч. 30 м.
Режим общего битрейта : Переменный
Общий поток : 4840 Кбит/сек
Дата кодирования : UTC 2018-12-07 19:44:16
Программа кодирования : mkvmerge v8.3.0 ('Over the Horizon') 64bit
Библиотека кодирования : libebml v1.3.1 + libmatroska v1.4.2

Видео
Идентификатор : 1
Формат : AVC
Формат/Информация : Advanced Video Codec
Профиль формата : High@L4.1
Параметр CABAC формата : Да
Параметр RefFrames формата : 4 кадра
Идентификатор кодека : V_MPEG4/ISO/AVC
Продолжительность : 1 ч. 30 м.
Вид битрейта : Переменный
Битрейт : 4454 Кбит/сек
Максимальный битрейт : 5000 Кбит/сек
Ширина : 1280 пикселей
Высота : 720 пикселей
Соотношение сторон : 16:9
Режим частоты кадров : Постоянный
Частота кадров : 23,976 (24000/1001) кадра/сек
Стандарт вещания : Component
Цветовое пространство : YUV
Субдискретизация насыщенности : 4:2:0
Битовая глубина : 8 бит
Тип развёртки : Прогрессивная
Бит/(Пиксели*Кадры) : 0.197
Размер потока : 2,77 Гбайт (90%)
Default : Да
Forced : Нет
Цветовой диапазон : Limited
Основные цвета : BT.709
Характеристики трансфера : BT.709
Коэффициенты матрицы : BT.709

Аудио
Идентификатор : 2
Формат : AC-3
Формат/Информация : Audio Coding 3
Расширение режима : CM (complete main)
Параметр Endianness формата : Big
Идентификатор кодека : A_AC3
Продолжительность : 1 ч. 30 м.
Вид битрейта : Постоянный
Битрейт : 384 Кбит/сек
Каналы : 2 канала
Расположение каналов : Front: L R
Частота : 48,0 КГц
Частота кадров : 31,250 кадров/сек (1536 spf)
Метод сжатия : С потерями
Размер потока : 250 Мбайт (8%)
Default : Да
Forced : Нет

pb.wtf



Скачать Это всё Изи через торрент https://a.radikal.ru/a19/1812/80/60821453532e.jpg Скачать фильм Это всё Изи через торрент бесплантно в хорошем качестве Описание: Йонас безнадежно влюблен в Изабель, но ей нравится другой парень. Однажды на молодежной вечеринке Изи, наглотавшись наркотиков, ... 10 10 1
Торрент: Зарегистрирован [2018-12-08 07:12] · скачан: 37 раз
Статус: T временная
Размер: 3.07 GB
Как cкачать? Как скачать Это всё Изи через торрент | qTorrent

% Раздел Тема Автор DL S | L
T Фильмы (мультфильмы) cо спонсором показа (Новинки AVI/MKV) [ 1.37 GB ] Это всё Изи / Alles Isy [2018 HDTVRip] MVO ["Синема УС"] bober100 Скачать
1 | 0

28-11-2019 20:33  

Отключить всю рекламу на сайте

08-12-2018 12:41 Это всё Изи Скачать торрент  

описание фильма напоминает историю Шурыгиной или как ее там.. pb.wtf



    Дорогой пользователь! Огромная просьба, поблагодарите релизера, оцените раздачу и оставьте свои комментарий, если Вы скачали Это всё Изи через торрент бесплатно! Внесите свою лепту в развитие PiratBit!
    Комментировать посты могут только пользователи прошедшие не сложную регистрацию
    Показать сообщения:    

    Это всё Изи через торрент
    Скачать бесплатно Это всё Изи
    Это всё Изи скачать торрент
    Это всё Изи смотреть онлайн
    Cкачать фильм Это всё Изи бесплатно
    Это всё Изи скачать торрент в хорошем качестве
    Это всё Изи смотреть онлайн бесплатно в хорошем качестве


    Вы не можете начинать темы
    Вы не можете отвечать на сообщения
    Вы не можете редактировать свои сообщения
    Вы не можете удалять свои сообщения
    Вы не можете голосовать в опросах
    Вы не можете прикреплять файлы к сообщениям
    Вы можете скачивать файлы