Ссылка на приватное зеркало нашего сайта всего за 1$. Внимание количество ограничено!!!

2 сезон

iTunes

1 сезон

1

iTunes

iTunes

iTunes

1 сезон

RePack

30

ИГРА 18+

pack

ВАЖНО

!!Акция!!

Alien_RageХит недели

RePack

MK11
pack

Забери бонус

RePack

jed

!!Акция!!

Alien_Rage

RePack

fifa19

RePack

Assassins Creed: Odyssey

RePack

NEED FOR SPEED™ PAYBACK

4 сезон

9 сезон

Бесстыжие 9 сезон

Все сериалы

все сериалы на PB.wtf

RePack

FAR CRY 5
  

Отравленная жизнь / Серии 1-4 из 4 (Юрий Попович) [2018 г., детектив, WEB-DL 720p] pb.wtf

Отравленная жизнь через торрент pb.wtf

Размер: 4.05 GB | Добавлен: 1 год 10 мес. назад | Торрент скачан:69 раз
Скачать  

08-12-2018 07:13 Отравленная жизнь Скачать торрент  

Отравленная жизнь
Год выпуска: 2018
Страна: Россия
Жанр: детектив
Продолжительность: 4 х ~00:45:00
Субтитры: Отсутствуют

Режиссер: Юрий Попович



В ролях: Елена Великанова, Максим Щёголев, Любовь Германова, Валерий Сторожик, Виктория Герасимова, Максим Сапрыкин, Дмитрий Фрид, Андрей Межулис, Ольга Герасимова, Михаил Дорожкин и др.

Описание: Александра с Грековым готовятся к свадьбе и ведут расследование загадочной гибели юной студентки-художницы. Сказочное убранство места происшествия, веретено с золотыми нитями, разбитое зеркало и необычный наряд жертвы заставляют Сашу вспомнить об итальянской живописи раннего возрождения. Но эта жертва оказывается не последней. Распутывая череду убийств, Александра раскроет целый преступный заговор и чуть сама не станет очередной жертвой…

Качество: WEB-DL 720p
Формат: MKV
Видео кодек: H.264
Аудио кодек: AC3
Видео: AVC/H.264, 1280x720 (16:9), ~3200 Kbps
Аудио#1: AC3, 2 ch, 192 Kbps
скриншот   скриншот   скриншот   скриншот  

Общее
Уникальный идентификатор : 245233625537170027793436380659117212291 (0xB87E473D4F641D33A5EEA1258F2C4283)
Полное имя : G:\Отравленная жизнь (2018)\Серия 1.mkv
Формат : Matroska
Версия формата : Version 4
Размер файла : 1,00 Гбайт
Продолжительность : 43 м. 44 с.
Режим общего битрейта : Постоянный
Общий поток : 3285 Кбит/сек
Название фильма : Otravlennaya.zhizn.e01.2018.WEB-DL.(720p).Getty
Дата кодирования : UTC 2018-12-07 20:24:48
Программа кодирования : mkvmerge v7.8.0 ('River Man') 32bit built on Mar 27 2015 16:18:02
Библиотека кодирования : libebml v1.3.1 + libmatroska v1.4.2

Видео
Идентификатор : 1
Формат : AVC
Формат/Информация : Advanced Video Codec
Профиль формата : High@L4.1
Настройки формата : CABAC / 4 Ref Frames
Параметр CABAC формата : Да
Параметр RefFrames формата : 4 кадра
Идентификатор кодека : V_MPEG4/ISO/AVC
Продолжительность : 43 м. 44 с.
Вид битрейта : Постоянный
Битрейт : 3200 Кбит/сек
Ширина : 1280 пикселей
Высота : 720 пикселей
Соотношение сторон : 16:9
Режим частоты кадров : Постоянный
Частота кадров : 25,000 кадров/сек
Цветовое пространство : YUV
Субдискретизация насыщенности : 4:2:0
Битовая глубина : 8 бит
Тип развёртки : Прогрессивная
Бит/(Пиксели*Кадры) : 0.139
Размер потока : 967 Мбайт (94%)
Default : Да
Forced : Нет

Аудио
Идентификатор : 2
Формат : AC-3
Формат/Информация : Audio Coding 3
Коммерческое название : Dolby Digital
Идентификатор кодека : A_AC3
Продолжительность : 43 м. 44 с.
Вид битрейта : Постоянный
Битрейт : 192 Кбит/сек
Каналы : 2 канала
Channel layout : L R
Частота : 48,0 КГц
Частота кадров : 31,250 кадров/сек (1536 SPF)
Битовая глубина : 16 бит
Метод сжатия : С потерями
Размер потока : 60,1 Мбайт (6%)
ServiceKind/String : Complete Main
Default : Да
Forced : Нет

pb.wtf



Скачать Отравленная жизнь через торрент http://pic1.kartinco.top/images/12/j5mk1.jpg Скачать фильм Отравленная жизнь через торрент бесплантно в хорошем качестве Описание: Александра с Грековым готовятся к свадьбе и ведут расследование загадочной гибели юной студентки-художницы. Сказочное убранство ... 10 10 3
Торрент: Зарегистрирован [2018-12-08 07:13] · скачан: 69 раз
Статус: √ проверено
Размер: 4.05 GB
Как cкачать? Как скачать Отравленная жизнь через торрент | qTorrent

% Раздел Тема Автор DL S | L
Наши сериалы [ 2.28 GB ] Отравленная жизнь / Серии: 1-4 из 4 [2018 экранизация SATRip-AVC] aleksan55 Скачать
1 | 0
Наши сериалы [ 2.28 GB ] Отравленная жизнь / Серии: 1-4 из 4 [2018 WEB-DLRip] bober100 Скачать
1 | 0

28-11-2019 20:33  

Отключить всю рекламу на сайте

    Дорогой пользователь! Огромная просьба, поблагодарите релизера, оцените раздачу и оставьте свои комментарий, если Вы скачали Отравленная жизнь через торрент бесплатно! Внесите свою лепту в развитие PiratBit!
    Комментировать посты могут только пользователи прошедшие не сложную регистрацию
    Показать сообщения:    

    Отравленная жизнь через торрент
    Скачать бесплатно Отравленная жизнь
    Отравленная жизнь скачать торрент
    Отравленная жизнь смотреть онлайн
    Cкачать фильм Отравленная жизнь бесплатно
    Отравленная жизнь скачать торрент в хорошем качестве
    Отравленная жизнь смотреть онлайн бесплатно в хорошем качестве


    Вы не можете начинать темы
    Вы не можете отвечать на сообщения
    Вы не можете редактировать свои сообщения
    Вы не можете удалять свои сообщения
    Вы не можете голосовать в опросах
    Вы не можете прикреплять файлы к сообщениям
    Вы можете скачивать файлы