Ссылка на приватное зеркало всего за 1$. Внимание количество ограничено!!!

OK

1+1

iTunes

мы

OK

1

WEB-DLRip

Джокер

Пифагор

Ведьмак / The Witcher сериал

Лицензия

ПШазам

ОК

Оно 2

iTunes

30
pack

Вам бонус

ВАЖНО

!!Акция!!

Alien_RageХит недели

RePack

Resident Evil 21

ИГРА 18+

pack

RePack

jed

!!Акция!!

Alien_Rage

RePack

fifa19

RePack

Assassins Creed: Odyssey

RePack

NEED FOR SPEED™ PAYBACK

4 сезон

9 сезон

Бесстыжие 9 сезон

Все сериалы

все сериалы на PB.wtf

RePack

FAR CRY 5
  

Смертельное добро / Sometimes the Good Kill (Филипп Ганьон) [2017, триллер, драма, криминал, детектив, WEB-DL 720p] MVO [Официальный звук] pb.wtf

Смертельное добро через торрент pb.wtf

Размер: 3.03 GB | Добавлен: 1 год 1 мес. назад | Торрент скачан:53 раза
Скачать  

08-12-2018 07:29 Смертельное добро Скачать торрент  

Смертельное добро / Sometimes the Good Kill Год выпуска: 2017
Страна: Канада
Жанр: триллер, драма, криминал, детектив
Продолжительность: 01:31:35
Перевод: Профессиональный многоголосый | Официальный звук
Субтитры: отсутствуют

Режиссер: Филипп Ганьон

rating

В ролях:

Сьюзи Абромейт, Аманда Бругел, Эллисон Хоссак, Дебора Гровер, Криста Бриджес, Юлия Пятраускас, Нора МакЛеллан, Лиза Труонг, Стюарт Хьюз, Карл Алакки

Описание:

Безмятежность уединенного женского монастыря нарушают сразу два убийства. Поиски убийцы поручают монахине с непростым прошлым - единственной, кто способен продраться сквозь паутину лжи и загадок, чтобы предотвратить новые смерти.

Качество: WEB-DL 720p
Формат: MKV

Видео: h.264, 4 358 Кбит/с, 1280x720
Аудио#1: Русский, (AC3, 2 ch, 384 Кбит/с)
скриншот  скриншот  скриншот  

Общее
Уникальный идентификатор : 190512975507438529062264948696859433791 (0x8F5376E50AD6F5FD87C6770DE0DA5B3F)
Полное имя : D:\Sometimes the Good Kill.2o18.Pof.WEB_DL.72Op.mkv
Формат : Matroska
Версия формата : Version 2
Размер файла : 3,03 Гбайт
Продолжительность : 1 ч. 31 м.
Режим общего битрейта : Переменный
Общий поток : 4743 Кбит/сек
Дата кодирования : UTC 2018-12-07 19:40:05
Программа кодирования : mkvmerge v8.3.0 ('Over the Horizon') 64bit
Библиотека кодирования : libebml v1.3.1 + libmatroska v1.4.2

Видео
Идентификатор : 1
Формат : AVC
Формат/Информация : Advanced Video Codec
Профиль формата : High@L4.1
Параметр CABAC формата : Да
Параметр RefFrames формата : 4 кадра
Идентификатор кодека : V_MPEG4/ISO/AVC
Продолжительность : 1 ч. 31 м.
Вид битрейта : Переменный
Битрейт : 4358 Кбит/сек
Максимальный битрейт : 5000 Кбит/сек
Ширина : 1280 пикселей
Высота : 720 пикселей
Соотношение сторон : 16:9
Режим частоты кадров : Постоянный
Частота кадров : 23,976 (24000/1001) кадра/сек
Стандарт вещания : Component
Цветовое пространство : YUV
Субдискретизация насыщенности : 4:2:0
Битовая глубина : 8 бит
Тип развёртки : Прогрессивная
Бит/(Пиксели*Кадры) : 0.193
Размер потока : 2,73 Гбайт (90%)
Default : Да
Forced : Нет
Цветовой диапазон : Limited
Основные цвета : BT.709
Характеристики трансфера : BT.709
Коэффициенты матрицы : BT.709

Аудио
Идентификатор : 2
Формат : AC-3
Формат/Информация : Audio Coding 3
Расширение режима : CM (complete main)
Параметр Endianness формата : Big
Идентификатор кодека : A_AC3
Продолжительность : 1 ч. 31 м.
Вид битрейта : Постоянный
Битрейт : 384 Кбит/сек
Каналы : 2 канала
Расположение каналов : Front: L R
Частота : 48,0 КГц
Частота кадров : 31,250 кадров/сек (1536 spf)
Метод сжатия : С потерями
Размер потока : 252 Мбайт (8%)
Default : Да
Forced : Нет

pb.wtf



Скачать Смертельное добро через торрент https://c.radikal.ru/c03/1812/8d/a0d614cb28d8.jpg Скачать фильм Смертельное добро через торрент бесплантно в хорошем качестве Описание: Безмятежность уединенного женского монастыря нарушают сразу два убийства. Поиски убийцы поручают монахине с непростым прошлым - ... 10 10 3
Торрент: Зарегистрирован [2018-12-08 07:29] · скачан: 53 раз
Статус: T временная
Размер: 3.03 GB
Как cкачать? Как скачать Смертельное добро через торрент | qTorrent

% Раздел Тема Автор DL S | L
T Фильмы (мультфильмы) cо спонсором показа (Новинки AVI/MKV) [ 1.37 GB ] Смертельное добро / Sometimes the Good Kill [2017 WEB-DLRip] MVO [Официальный звук] bober100 Скачать
1 | 0

28-11-2019 20:33  

Отключить всю рекламу на сайте

    Дорогой пользователь! Огромная просьба, поблагодарите релизера, оцените раздачу и оставьте свои комментарий, если Вы скачали Смертельное добро через торрент бесплатно! Внесите свою лепту в развитие PiratBit!
    Комментировать посты могут только пользователи прошедшие не сложную регистрацию
    Показать сообщения:    

    Смертельное добро через торрент
    Скачать бесплатно Смертельное добро
    Смертельное добро скачать торрент
    Смертельное добро смотреть онлайн
    Cкачать фильм Смертельное добро бесплатно
    Смертельное добро скачать торрент в хорошем качестве
    Смертельное добро смотреть онлайн бесплатно в хорошем качестве


    Вы не можете начинать темы
    Вы не можете отвечать на сообщения
    Вы не можете редактировать свои сообщения
    Вы не можете удалять свои сообщения
    Вы не можете голосовать в опросах
    Вы не можете прикреплять файлы к сообщениям
    Вы можете скачивать файлы