новый адрес
Ссылка на приватное зеркало всего за 1$. Внимание количество ограничено!!!

iTunes

1+1

iTunes

мы

WEB-DL

1

iTunes

Чернобыль

iTunes

Ральф против интернета

Лицензия

ПШазам

Лицензия

Оно 2

Лицензия

30
pack

Вам бонус

ВАЖНО

!!Акция!!

Alien_RageХит недели

RePack

Resident Evil 21

ИГРА 18+

pack

RePack

jed

!!Акция!!

Alien_Rage

RePack

fifa19

RePack

Assassins Creed: Odyssey

RePack

NEED FOR SPEED™ PAYBACK

3 сезон

9 сезон

Бесстыжие 9 сезон

Все сериалы

все сериалы на PB.wtf

RePack

FAR CRY 5
Ребята, катастрофически не хватает 1900р. для оплаты серверов за Октябрь (всвязи с блокировками трафик упал в 3 раза), 1-2р., выручайте.
  

Смертельная гонка 4: Вне анархии / Death Race: Beyond Anarchy (Дон Майкл Пол) [2018 г., боевик, HDRip, Дубляж BD EUR] pb.wtf

Смертельная гонка 4: Вне анархии через торрент pb.wtf

Раздают: 1 [ 0 KB/s ]
Размер: 755 MB | Добавлен: 11 мес. назад | Торрент скачан:103 раза
Скачать  

08-12-2018 19:03 Смертельная гонка 4: Вне анархии Скачать торрент  

Смертельная гонка 4: Вне анархии / Death Race: Beyond Anarchy
Год выпуска: 2018
Страна: США, Болгария / Universal 1440 Entertainment,UFO International Productions,Capital Arts Entertainment
Жанр: боевик
Продолжительность: 01:50:58
Перевод: Дубляж (BD EUR)
Субтитры: Русские форсированные-вшитые

Режиссер: Дон Майкл Пол

rating

В ролях: Люси Саутхолл, Николас Аарон, Jasette Amos, Виктория Ананьева, Нели Ангелова, Боян Анев, Ванина Ариас, Линда Келли, Еннис Чун-Ян, Кэсси Клер

Описание: Герой знакомится с агентом телеканала в местном баре, и тот предлагает ему участие в гонке по пустыне. Гонщиками становятся все отъявленные негодяи, насильники и убийцы. Когда герой отказывается, его семью берут в заложники, а самого насильно заставляют сесть за руль.

Качество: HDRip
Формат: AVI
Видео кодек: XviD
Аудио кодек: MP3
Видео: 672x376 (1.79:1), 23.976 fps, XviD build 50 ~809 kbps avg, 0.13 bit/pixel
Аудио: 48 kHz, MPEG Layer 3, 2 ch, ~128.00 kbps avg
скриншот   скриншот   скриншот   скриншот   скриншот   скриншот   скриншот   скриншот  

Общее
Полное имя : F:\ФИЛЬМЫ\Смертельная гонка 4. Вне анархии.2018.D.HDRip.avi
Формат : AVI
Формат/Информация : Audio Video Interleave
Размер файла : 755 Мбайт
Продолжительность : 1 ч. 50 м.
Режим общего битрейта : Переменный
Общий поток : 951 Кбит/сек
Программа кодирования : VirtualDubMod 1.5.10.3 | www.virtualdub-fr.org || (build 2550/release)
Библиотека кодирования : VirtualDubMod build 2550/release

Видео
Идентификатор : 0
Формат : MPEG-4 Visual
Профиль формата : Advanced Simple@L5
Настройки формата : BVOP1
Параметр BVOP формата : 1
Параметр QPel формата : Нет
Параметр GMC формата : Без точки перехода
Параметр матрицы формата : Default (MPEG)
Идентификатор кодека : XVID
Идентификатор кодека/Подсказка : XviD
Продолжительность : 1 ч. 50 м.
Битрейт : 810 Кбит/сек
Ширина : 672 пикселя
Высота : 376 пикселей
Соотношение сторон : 16:9
Частота кадров : 23,976 (24000/1001) кадра/сек
Цветовое пространство : YUV
Субдискретизация насыщенности : 4:2:0
Битовая глубина : 8 бит
Тип развёртки : Прогрессивная
Метод сжатия : С потерями
Бит/(Пиксели*Кадры) : 0.134
Размер потока : 643 Мбайт (85%)
Библиотека кодирования : XviD 1.2.1 (UTC 2008-12-04)

Аудио
Идентификатор : 1
Формат : MPEG Audio
Версия формата : Version 1
Профиль формата : Layer 3
Настройки формата : Joint stereo / MS Stereo
Идентификатор кодека : 55
Идентификатор кодека/Подсказка : MP3
Продолжительность : 1 ч. 50 м.
Вид битрейта : Переменный
Битрейт : 128 Кбит/сек
Каналы : 2 канала
Частота : 48,0 КГц
Метод сжатия : С потерями
Размер потока : 102 Мбайт (13%)
Выравнивание : Соединение по промежуткам
Продолжительность промежутка : 24 мс. (0,58 видеокадр)
Время предзагрузки промежутка : 486 мс.
Библиотека кодирования : LAME3.98.2

pb.wtf



Скачать Смертельная гонка 4: Вне анархии через торрент http://pic1.kartinco.top/images/12/stjcu.jpg Скачать фильм Смертельная гонка 4: Вне анархии через торрент бесплантно в хорошем качестве Описание: Герой знакомится с агентом телеканала в местном баре, и тот предлагает ему участие в гонке по пустыне. Гонщиками становятся все ... 10 10 2
Торрент: Зарегистрирован [2018-12-08 19:03] · скачан: 103 раз
Статус: √ проверено
Размер: 755 MB
Как cкачать? Как скачать Смертельная гонка 4: Вне анархии через торрент | qTorrent

% Раздел Тема Автор DL S | L
Фильмы 2018 [DVDrip, WEB-DLRip, HDrip] (DUB, MVO) [ 1.46 GB ] Смертельная гонка 4: Вне анархии / Death Race 4: Beyond Anarchy [2018 BDRip] - [] Twi7ter Скачать
4 | 0
Фильмы [HD 720p, 1080p] (Хороший звук DUB, MVO) [ 4.33 GB ] Смертельная гонка 4: Вне анархии / Death Race 4: Beyond Anarchy [2018 BDRip-HEVC 1080p ] DUB [] bober100 Скачать
3 | 0
Фильмы (Blu-ray, BD-Remux, HDDVD) [ 38.82 GB ] Смертельная гонка 4: Вне анархии / Death Race 4: Beyond Anarchy [2018 Blu-Ray EUR 1080p ] Бумер Скачать
1 | 0
Фильмы [HD 720p, 1080p] (Хороший звук DUB, MVO) [ 8.69 GB ] Смертельная гонка 4: Вне анархии / Death Race 4: Beyond Anarchy [2018 BDRip 720p] DUB [] -Lexx- Скачать
2 | 0
Фильмы 2018 [DVDrip, WEB-DLRip, HDrip] (DUB, MVO) [ 2.18 GB ] Смертельная гонка 4: Вне анархии / Death Race 4: Beyond Anarchy [2018 BDRip] Dub + Sub + Original Eng -Lexx- Скачать
1 | 0
Фильмы [HD 720p, 1080p] (Хороший звук DUB, MVO) [ 15.12 GB ] Смертельная гонка 4: Вне анархии / Death Race 4: Beyond Anarchy [2018 BDRip 1080p] DUB [] -Lexx- Скачать
1 | 0
Фильмы 2018 [DVDrip, WEB-DLRip, HDrip] (DUB, MVO) [ 1.46 GB ] Смертельная гонка 4: Вне анархии / Death Race 4: Beyond Anarchy [2018 BDRip] DUB [] -Lexx- Скачать
2 | 0

28-11-2019 20:33  

Отключить всю рекламу на сайте

09-12-2018 06:55 Смертельная гонка 4: Вне анархии Скачать торрент  

эту хрень еще снимают. я после 2й перестал смотретьpb.wtf



09-12-2018 09:37 Смертельная гонка 4: Вне анархии Скачать торрент  

я уж думал в дубляже недождусь а тут такой сюрприз правда глянул начало звук с каким то треском дальше не проверяла на други раздачах вроде все нормпльноpb.wtf



    Дорогой пользователь! Огромная просьба, поблагодарите релизера, оцените раздачу и оставьте свои комментарий, если Вы скачали Смертельная гонка 4: Вне анархии через торрент бесплатно! Внесите свою лепту в развитие PiratBit!
    Комментировать посты могут только пользователи прошедшие не сложную регистрацию
    Показать сообщения:    

    Смертельная гонка 4: Вне анархии через торрент
    Скачать бесплатно Смертельная гонка 4: Вне анархии
    Смертельная гонка 4: Вне анархии скачать торрент
    Смертельная гонка 4: Вне анархии смотреть онлайн
    Cкачать фильм Смертельная гонка 4: Вне анархии бесплатно
    Смертельная гонка 4: Вне анархии скачать торрент в хорошем качестве
    Смертельная гонка 4: Вне анархии смотреть онлайн бесплатно в хорошем качестве


    Вы не можете начинать темы
    Вы не можете отвечать на сообщения
    Вы не можете редактировать свои сообщения
    Вы не можете удалять свои сообщения
    Вы не можете голосовать в опросах
    Вы не можете прикреплять файлы к сообщениям
    Вы можете скачивать файлы