Ссылка на приватное зеркало всего за 1$. Внимание количество ограничено!!!

iTunes

1+1

iTunes

мы

WEB-DL

1

iTunes

Чернобыль

iTunes

Ральф против интернета

Лицензия

ПШазам

Лицензия

Оно 2

Лицензия

30
pack

Вам бонус

ВАЖНО

!!Акция!!

Alien_RageХит недели

RePack

Resident Evil 21

ИГРА 18+

pack

RePack

jed

!!Акция!!

Alien_Rage

RePack

fifa19

RePack

Assassins Creed: Odyssey

RePack

NEED FOR SPEED™ PAYBACK

3 сезон

9 сезон

Бесстыжие 9 сезон

Все сериалы

все сериалы на PB.wtf

RePack

FAR CRY 5
Ребята, катастрофически не хватает 1900р. для оплаты серверов за Октябрь (всвязи с блокировками трафик упал в 3 раза), 1-2р., выручайте.
  

Веном / Venom (Рубен Фляйшер) [2018, ужасы, фантастика, боевик, триллер, HDRip-AVC] MVO [HDRezka Studio] - ExKinoRay pb.wtf

Веном через торрент pb.wtf

Раздают: 10 [ 2 KB/s ]
Размер: 1.45 GB | Добавлен: 1 год назад | Торрент скачан:2537 раз
Скачать  

09-12-2018 04:30 Веном Скачать торрент  

Информация о фильме
Название: Веном
Оригинальное название: Venom
Год выпуска: 2018
Жанр: Фантастика, боевик, триллер, комикс, супергерой
Режиссер: Рубен Фляйшер
В ролях: Том Харди, Мишель Уильямс, Риз Ахмед, Рейд Скотт, Марчелла Браджио, Вуди Харрельсон, Дженни Слейт, Пегги Лу, Мак Брандт, Рон Сефас Джонс, Мишель Ли (II), Мелора Уолтерс, Сопе Алуко

Описание:
Что если в один прекрасный день в тебя вселяется существо-симбиот, которое наделяет тебя сверхчеловеческими способностями? Вот только Веном - симбиот совсем недобрый, и договориться с ним невозможно. Хотя нужно ли договариваться?.. Ведь в какой-то момент ты понимаешь, что быть плохим вовсе не так уж и плохо. Так даже веселее. В мире и так слишком много супергероев! Мы - Веном!



Страна: США
Студия: Columbia Pictures Corporation, Marvel Entertainment, Pascal Pictures
Продолжительность: 01:52:08
Перевод: Профессиональный (многоголосый, закадровый) | HDRezka Studio

Кодек: H.264
Качество: HDRip-AVC
Видео: MPEG-4 AVC, 720x300 (2.40:1), 23,976 fps, ~1655 kbps avg, 0.320 bit/pixel
Звук: 48 kHz, AC3 Dolby Digital, 2/0 ch, ~192 kbps avg
Субтитры: Русские , английские
General
Unique ID : 245849545023661637824788422014337277487 (0xB8F4E66A2B2B971E8551CE789CABDE2F)
Complete name : D:\Venom.2018.MVO.HDRip.AVC.ExKinoRay.mkv
Format : Matroska
Format version : Version 2
File size : 1.45 GiB
Duration : 1 h 52 min
Overall bit rate : 1 849 kb/s
Movie name : Venom (2018) from ExKinoRay
Encoded date : UTC 2018-12-08 22:44:06
Writing application : mkvmerge v5.6.0 ('Kenya Kane') built on May 27 2012 16:44:04
Writing library : libebml v1.2.3 + libmatroska v1.3.0

Video
ID : 1
Format : AVC
Format/Info : Advanced Video Codec
Format profile : High@L4.1
Format settings, CABAC : Yes
Format settings, ReFrames : 12 frames
Codec ID : V_MPEG4/ISO/AVC
Duration : 1 h 52 min
Bit rate : 1 655 kb/s
Width : 720 pixels
Height : 300 pixels
Display aspect ratio : 2.40:1
Frame rate mode : Constant
Frame rate : 23.976 (24000/1001) FPS
Original frame rate : 23.976 (23976/1000) FPS
Color space : YUV
Chroma subsampling : 4:2:0
Bit depth : 8 bits
Scan type : Progressive
Bits/(Pixel*Frame) : 0.320
Stream size : 1.27 GiB (88%)
Title : Enigma
Writing library : x264 core 152 r2851 ba24899
Encoding settings : cabac=1 / ref=12 / deblock=1:-2:-2 / analyse=0x3:0x113 / me=umh / subme=10 / psy=1 / psy_rd=1.02:0.05 / mixed_ref=1 / me_range=32 / chroma_me=1 / trellis=2 / 8x8dct=1 / cqm=0 / deadzone=21,11 / fast_pskip=0 / chroma_qp_offset=-3 / threads=9 / lookahead_threads=2 / sliced_threads=0 / nr=0 / decimate=0 / interlaced=0 / bluray_compat=0 / constrained_intra=0 / bframes=10 / b_pyramid=2 / b_adapt=2 / b_bias=0 / direct=3 / weightb=1 / open_gop=0 / weightp=2 / keyint=240 / keyint_min=23 / scenecut=40 / intra_refresh=0 / rc=2pass / mbtree=0 / bitrate=1655 / ratetol=1.0 / qcomp=0.60 / qpmin=0 / qpmax=51 / qpstep=4 / cplxblur=20.0 / qblur=0.5 / ip_ratio=1.30 / pb_ratio=1.20 / aq=2:0.90
Default : Yes
Forced : No
Color range : Limited
Color primaries : BT.709
Transfer characteristics : BT.709
Matrix coefficients : BT.709

Audio
ID : 2
Format : AC-3
Format/Info : Audio Coding 3
Mode extension : CM (complete main)
Format settings, Endianness : Big
Codec ID : A_AC3
Duration : 1 h 52 min
Bit rate mode : Constant
Bit rate : 192 kb/s
Channel(s) : 2 channels
Channel positions : Front: L R
Sampling rate : 48.0 kHz
Frame rate : 31.250 FPS (1536 spf)
Compression mode : Lossy
Stream size : 154 MiB (10%)
Title : MVO (HDRezka Studio)
Language : Russian
Default : Yes
Forced : No

Text #1
ID : 3
Format : UTF-8
Codec ID : S_TEXT/UTF8
Codec ID/Info : UTF-8 Plain Text
Language : Russian
Default : No
Forced : No

Text #2
ID : 4
Format : UTF-8
Codec ID : S_TEXT/UTF8
Codec ID/Info : UTF-8 Plain Text
Language : English
Default : No
Forced : No

Menu
00:00:00.000 : en:00:00:00.000
00:04:43.200 : en:00:04:43.200
00:10:58.074 : en:00:10:58.074
00:17:34.929 : en:00:17:34.929
00:24:05.486 : en:00:24:05.486
00:32:18.812 : en:00:32:18.812
00:40:07.447 : en:00:40:07.447
00:46:51.976 : en:00:46:51.976
00:53:26.203 : en:00:53:26.203
01:00:57.070 : en:01:00:57.070
01:04:01.796 : en:01:04:01.796
01:08:36.446 : en:01:08:36.446
01:11:12.852 : en:01:11:12.852
01:14:15.743 : en:01:14:15.743
01:21:18.749 : en:01:21:18.749
01:27:15.021 : en:01:27:15.021
Релиз от:

Автор релиза: pb.wtf



Скачать Веном через торрент http://img14.lostpic.net/2018/12/09/0d1078a8a67dbb75e0906723405eba7b.jpg Скачать фильм Веном через торрент бесплантно в хорошем качестве Описание: Что если в один прекрасный день в тебя вселяется существо-симбиот, которое наделяет тебя сверхчеловеческими способностями? Вот ... 9.8 10 40
Info! Золотая раздача, скачанное не засчитывается.
Торрент: Зарегистрирован [2018-12-09 04:30] · скачан: 2 537 раз
Статус: T временная
Размер: 1.45 GB
Как cкачать? Как скачать Веном через торрент | qTorrent

% Раздел Тема Автор DL S | L
Фильмы с авторской озвучкой [ 1.45 GB ] Веном / Venom [2018 комикс BDRip-AVC] AVO [Есарев] - ExKinoRay Enigma2010 Скачать
1 | 0

28-11-2019 20:33  

Отключить всю рекламу на сайте

09-12-2018 04:31 Веном Скачать торрент  

средненько....pb.wtf



09-12-2018 16:47 Веном Скачать торрент  

перевод дерьмо. не как в трейлере!!! даже не стоит с таким переводом смотреть.pb.wtf



10-12-2018 15:53 Веном Скачать торрент  

с любым переводом смотреть не стоит.
Фильм бред.
Такой глупой экранизации комикса давно не былоpb.wtf



10-12-2018 20:04 Веном Скачать торрент  

djalex91 писал(а):

перевод дерьмо. не как в трейлере!!! даже не стоит с таким переводом смотреть.

Как в трейлере -звук Line ,с рекламой))pb.wtf



15-12-2018 15:21 Веном Скачать торрент  

Ожидал большего!но фильм хорош!!!!!pb.wtf



16-12-2018 16:32 Веном Скачать торрент  

на половине фильма заснул днем!!! ох и шлакpb.wtf



    Дорогой пользователь! Огромная просьба, поблагодарите релизера, оцените раздачу и оставьте свои комментарий, если Вы скачали Веном через торрент бесплатно! Внесите свою лепту в развитие PiratBit!
    Комментировать посты могут только пользователи прошедшие не сложную регистрацию
    Показать сообщения:    

    Веном через торрент
    Скачать бесплатно Веном
    Веном скачать торрент
    Веном смотреть онлайн
    Cкачать фильм Веном бесплатно
    Веном скачать торрент в хорошем качестве
    Веном смотреть онлайн бесплатно в хорошем качестве


    Вы не можете начинать темы
    Вы не можете отвечать на сообщения
    Вы не можете редактировать свои сообщения
    Вы не можете удалять свои сообщения
    Вы не можете голосовать в опросах
    Вы не можете прикреплять файлы к сообщениям
    Вы можете скачивать файлы