новый адрес
Мега распродажа FORZA HORIZON 4 ULTIMATE+ВСЕ DLC+ОНЛАЙН всего за 499р. 349 руб. (супер цена). Внимание количество ограничено!!!

iTunes

1+1

iTunes

мы

iTunes

1

iTunes

Чернобыль

iTunes

Ральф против интернета

Лицензия

ПШазам

Лицензия

Игра престолов

Лицензия

30
pack

ВАЖНО

!!Акция!!

Alien_RageХит недели

RePack

Resident Evil 21

ИГРА 18+

pack

RePack

Metro:Exodus

!!Акция!!

Alien_Rage

RePack

fifa19

RePack

Assassins Creed: Odyssey

RePack

NEED FOR SPEED™ PAYBACK

3 сезон

9 сезон

Бесстыжие 9 сезон

Все сериалы

все сериалы на PB.wtf

RePack

FAR CRY 5
Ребята, катастрофически не хватает 1900р. для оплаты серверов за Октябрь (всвязи с блокировками трафик упал в 3 раза), 1-2р., выручайте.
  

Пока бьется сердце (Екатерина Двигубская) [2018 г., Мелодрама, WEBRip, Не требуется Русский] pb.wtf

Пока бьется сердце через торрент pb.wtf

Размер: 1.37 GB | Добавлен: 11 мес. назад | Торрент скачан:159 раз
Скачать  

09-12-2018 04:41 Пока бьется сердце Скачать торрент  

Пока бьется сердце
Год выпуска: 2018
Страна: Россия
Жанр: Мелодрама
Продолжительность: 01:31:00
Перевод: Не требуется Русский
Субтитры: Отсутствуют

Режиссер: Екатерина Двигубская



В ролях: Ольга Михайлова, Александр Константинов, Владимир Гориславец, Святослав Астрамович, Евгения Осипова, Андрей Давидюк, Александр Ильин

Описание: Маша счастливо жила в большом доме с мужем Игорем и маленьким сыном. Пока однажды Игорь не нанял нового водителя - Алексея. Маша потрясена, Алексей был ее первой любовью, но из-за его предательства они расстались, и Маша вышла за Игоря. А вскоре Маша узнает, что ее верный, заботливый и надежный муж, уважаемый бизнесмен, на самом деле наркоторговец. Теперь ей и ее сыну грозит смерть...

Качество: WEBRip
Формат: AVI
Видео кодек: XviD
Аудио кодек: AC3
Видео: XviD, ~ 1947 Кбит/с, 720x400
Аудио#1: AC3, 2 ch, 192 Кбит/с
скриншот   скриншот   скриншот   скриншот  

General
Complete name : H:\релизы.торрентфайл\Пока бьется сердце.(2018).WEB-DLRip.by.Серый1779.Files-x.avi
Format : AVI
Format/Info : Audio Video Interleave
File size : 1.37 GiB
Duration : 1h 31mn
Overall bit rate : 2 148 Kbps
Writing application : VirtualDubMod 1.5.10.3 | www.virtualdub-fr.org || (build 2550/release)
Writing library : VirtualDubMod build 2550/release

Video
ID : 0
Format : MPEG-4 Visual
Format profile : Advanced Simple@L5
Format settings, BVOP : 1
Format settings, QPel : No
Format settings, GMC : No warppoints
Format settings, Matrix : Custom
Codec ID : XVID
Codec ID/Hint : XviD
Duration : 1h 31mn
Bit rate : 1 947 Kbps
Width : 720 pixels
Height : 400 pixels
Display aspect ratio : 16:9
Frame rate : 25.000 fps
Color space : YUV
Chroma subsampling : 4:2:0
Bit depth : 8 bits
Scan type : Progressive
Compression mode : Lossy
Bits/(Pixel*Frame) : 0.270
Stream size : 1.24 GiB (91%)
Writing library : XviD 73

Audio
ID : 1
Format : AC-3
Format/Info : Audio Coding 3
Mode extension : CM (complete main)
Format settings, Endianness : Big
Codec ID : 2000
Duration : 1h 31mn
Bit rate mode : Constant
Bit rate : 192 Kbps
Channel(s) : 2 channels
Channel positions : Front: L R
Sampling rate : 48.0 KHz
Bit depth : 16 bits
Compression mode : Lossy
Stream size : 126 MiB (9%)
Alignment : Split accross interleaves
Interleave, duration : 40 ms (1.00 video frame)
Interleave, preload duration : 500 ms

pb.wtf



Скачать Пока бьется сердце через торрент http://pic1.kartinco.top/images/12/5jxr4.jpg Скачать фильм Пока бьется сердце через торрент бесплантно в хорошем качестве Описание: Маша счастливо жила в большом доме с мужем Игорем и маленьким сыном. Пока однажды Игорь не нанял нового водителя - Алексея. Маша ... 10 10 9
Торрент: Зарегистрирован [2018-12-09 04:41] · скачан: 159 раз
Статус: √ проверено
Размер: 1.37 GB
Как cкачать? Как скачать Пока бьется сердце через торрент | qTorrent


>> Регистрируемся здесь <<






Отзывы и комментарии о схеме читаем и пишем здесь: ---> Отзывы и комментарии о схеме

Новые благодарочки в телеграм довольных пользователей:
скриншот   скриншот   скриншот   скриншот   скриншот
    Дорогой пользователь! Огромная просьба, поблагодарите релизера, оцените раздачу и оставьте свои комментарий, если Вы скачали Пока бьется сердце через торрент бесплатно! Внесите свою лепту в развитие PiratBit!
    Комментировать посты могут только пользователи прошедшие не сложную регистрацию
    Показать сообщения:    

    Пока бьется сердце через торрент
    Скачать бесплатно Пока бьется сердце
    Пока бьется сердце скачать торрент
    Пока бьется сердце смотреть онлайн
    Cкачать фильм Пока бьется сердце бесплатно
    Пока бьется сердце скачать торрент в хорошем качестве
    Пока бьется сердце смотреть онлайн бесплатно в хорошем качестве


    Вы не можете начинать темы
    Вы не можете отвечать на сообщения
    Вы не можете редактировать свои сообщения
    Вы не можете удалять свои сообщения
    Вы не можете голосовать в опросах
    Вы не можете прикреплять файлы к сообщениям
    Вы можете скачивать файлы