новый адрес
Ссылка на приватное зеркало всего за 1$. Внимание количество ограничено!!!

iTunes

1+1

iTunes

мы

iTunes

1

iTunes

Чернобыль

iTunes

Ральф против интернета

Лицензия

ПШазам

Лицензия

Оно 2

Лицензия

30
pack

Вам бонус

ВАЖНО

!!Акция!!

Alien_RageХит недели

RePack

Resident Evil 21

ИГРА 18+

pack

RePack

jed

!!Акция!!

Alien_Rage

RePack

fifa19

RePack

Assassins Creed: Odyssey

RePack

NEED FOR SPEED™ PAYBACK

3 сезон

9 сезон

Бесстыжие 9 сезон

Все сериалы

все сериалы на PB.wtf

RePack

FAR CRY 5
Ребята, катастрофически не хватает 1900р. для оплаты серверов за Октябрь (всвязи с блокировками трафик упал в 3 раза), 1-2р., выручайте.
  

Рассказы о юности (Борис Степанов, Виктор Туров, Марк Брауде, Лев Дурасов) [1961, киноповесть, DVDRip-AVC от AVP Studio] pb.wtf

Рассказы о юности через торрент pb.wtf

Размер: 1.09 GB | Добавлен: 11 мес. назад | Торрент скачан:8 раз
Скачать  

09-12-2018 08:56 Рассказы о юности Скачать торрент  

Рассказы о юности
Страна: СССР
Производство: Беларусьфильм

Жанр: киноповесть
Год выпуска: 1961
Продолжительность: 01:26:30

Перевод: Не требуется
Cубтитры: нет
Оригинальная аудиодорожка: русский

Режиссер: Борис Степанов, Виктор Туров, Марк Брауде, Лев Дурасов

В ролях:
Ольга Лысенко, Валентин Грачёв, Анатолий Чарноцкий, Галина Самохина, Юрий Соловьёв, Юрий Минин, Геннадий Павлов, С. Громова, Владимир Поночевный, Виктор Тарасов, Юрий Дубровин, Людмила Тимофеева, Валериан Виноградов, Валентин Белохвостик, Лев Дурасов...
Об актёрах подробней

Описание:
Славному Ленинскому комсомолу Белоруссии посвящается.
Фильм состоит из четырёх новелл:
- Секретарь укома по мотивам рассказа А. Исбаха "Расстрел";
- Комстрой;
- Прорыв;
- Даль зовет.

Источник: DVD5 R5
Качество видео: DVDRip-AVC
Формат видео: MKV

Видео: 708->760х570 (4:3), 25 fps, H264 ~ 1608 kbps avg, 0.159 bit/pixel
Аудио: 48 kHz, Dolby Digital AC3 2.0, 192 kbps

Раздача от:
Общее
Полное имя : Rasskazy.o.yunosti.1961.DVDRip-AVC_[New-team]_by_AVP_Studio.mkv
Формат : Matroska
Версия формата : Version 2
Размер файла : 1,09 Гбайт
Продолжительность : 1 ч. 26 м.
Общий поток : 1802 Кбит/сек
Дата кодирования : UTC 2018-12-08 11:15:18
Программа кодирования : mkvmerge v6.1.0 ('Old Devil') built on Mar 4 2013 09:10:42
Библиотека кодирования : libebml v1.3.0 + libmatroska v1.4.0

Видео
Идентификатор : 1
Формат : AVC
Формат/Информация : Advanced Video Codec
Профиль формата : High@L4.1
Настройки формата : CABAC / 10 Ref Frames
Параметр CABAC формата : Да
Параметр RefFrames формата : 10 кадров
Идентификатор кодека : V_MPEG4/ISO/AVC
Продолжительность : 1 ч. 26 м.
Битрейт : 1608 Кбит/сек
Ширина : 708 пикселей
Высота : 570 пикселей
Соотношение сторон : 4:3
Режим частоты кадров : Постоянный
Частота кадров : 25,000 кадров/сек
Цветовое пространство : YUV
Субдискретизация насыщенности : 4:2:0
Битовая глубина : 8 бит
Тип развёртки : Прогрессивная
Бит/(Пиксели*Кадры) : 0.159
Размер потока : 974 Мбайт (87%)
Библиотека кодирования : x264 core 157 r2932 303c484
Настройки программы : cabac=1 / ref=10 / deblock=1:-2:-1 / analyse=0x3:0x113 / me=umh / subme=10 / psy=1 / psy_rd=1.00:0.00 / mixed_ref=1 / me_range=32 / chroma_me=1 / trellis=2 / 8x8dct=1 / cqm=0 / deadzone=21,11 / fast_pskip=1 / chroma_qp_offset=-2 / threads=6 / lookahead_threads=1 / sliced_threads=0 / nr=0 / decimate=0 / interlaced=0 / bluray_compat=0 / constrained_intra=0 / bframes=8 / b_pyramid=2 / b_adapt=2 / b_bias=0 / direct=3 / weightb=1 / open_gop=0 / weightp=2 / keyint=250 / keyint_min=25 / scenecut=40 / intra_refresh=0 / rc=2pass / mbtree=0 / bitrate=1608 / ratetol=1.0 / qcomp=0.60 / qpmin=0 / qpmax=69 / qpstep=4 / cplxblur=20.0 / qblur=0.5 / ip_ratio=1.40 / pb_ratio=1.30 / aq=1:1.00
Default : Да
Forced : Нет

Аудио
Идентификатор : 2
Формат : AC-3
Формат/Информация : Audio Coding 3
Коммерческое название : Dolby Digital
Идентификатор кодека : A_AC3
Продолжительность : 1 ч. 26 м.
Вид битрейта : Постоянный
Битрейт : 192 Кбит/сек
Каналы : 2 канала
Channel layout : L R
Частота : 48,0 КГц
Частота кадров : 31,250 кадров/сек (1536 SPF)
Битовая глубина : 16 бит
Метод сжатия : С потерями
Размер потока : 119 Мбайт (11%)
Default : Да
Forced : Нет
pb.wtf



Скачать Рассказы о юности через торрент http://picplus.ru/img/1812/09/1595b01c.png Скачать фильм Рассказы о юности через торрент бесплантно в хорошем качестве Описание:Славному Ленинскому комсомолу Белоруссии посвящается.Фильм состоит из четырёх новелл:- Секретарь укома по мотивам рассказа А. ... 5 10 1
Info! Золотая раздача, скачанное не засчитывается.
Торрент: Зарегистрирован [2018-12-09 08:56] · скачан: 8 раз
Статус: √ проверено
Размер: 1.09 GB
Как cкачать? Как скачать Рассказы о юности через торрент | qTorrent

% Раздел Тема Автор DL S | L
Кино СССР [ 1.09 GB ] Рассказы о юности [1961 киноповесть DVDRip от AVP Studio] AVP Studio Скачать
1 | 0
    Дорогой пользователь! Огромная просьба, поблагодарите релизера, оцените раздачу и оставьте свои комментарий, если Вы скачали Рассказы о юности через торрент бесплатно! Внесите свою лепту в развитие PiratBit!
    Комментировать посты могут только пользователи прошедшие не сложную регистрацию
    Показать сообщения:    

    Рассказы о юности через торрент
    Скачать бесплатно Рассказы о юности
    Рассказы о юности скачать торрент
    Рассказы о юности смотреть онлайн
    Cкачать фильм Рассказы о юности бесплатно
    Рассказы о юности скачать торрент в хорошем качестве
    Рассказы о юности смотреть онлайн бесплатно в хорошем качестве


    Вы не можете начинать темы
    Вы не можете отвечать на сообщения
    Вы не можете редактировать свои сообщения
    Вы не можете удалять свои сообщения
    Вы не можете голосовать в опросах
    Вы не можете прикреплять файлы к сообщениям
    Вы можете скачивать файлы