Ссылка на приватное зеркало нашего сайта всего за 1$. Внимание количество ограничено!!!

2 сезон

iTunes

1 сезон

1

2 сезон

2 сезон

iTunes

1 сезон

RePack

30

Ultimate

ВАЖНО

ИГРА 18+

pack

RePack

MK11
pack

Забери бонус

RePack

jed

!!Акция!!

Alien_Rage

RePack

fifa19

RePack

Assassins Creed: Odyssey

RePack

NEED FOR SPEED™ PAYBACK

4 сезон

9 сезон

Бесстыжие 9 сезон

Все сериалы

все сериалы на PB.wtf

RePack

FAR CRY 5
  

Смертельная гонка 4: Вне анархии / Death Race 4: Beyond Anarchy (Дон Майкл Пол) [2018, боевик, BDRip 720p] DUB [Лицензия] pb.wtf

Смертельная гонка 4: Вне анархии через торрент pb.wtf

Раздают: 1 [ 0 KB/s ]
Размер: 8.69 GB | Добавлен: 1 год 11 мес. назад | Торрент скачан:185 раз
Скачать  

09-12-2018 09:58 Смертельная гонка 4: Вне анархии Скачать торрент  

Смертельная гонка 4: Вне анархии / Death Race 4: Beyond AnarchyГод выпуска: 2018
Страна: США
Жанр: боевик
Продолжительность: 01:50:58
Перевод: Дубляж [Blu-ray CEE]
Субтитры: русские (полные + форс.), английские (Full), английские (SDH)

Режиссер: Дон Майкл Пол

rating

В ролях:

Зэк МакГоун, Фредерик Колер, Кристин Мардзано, Еннис Чун-Ян, Кэсси Клер, Люси Саутхолл, Дэнни Гловер, Дэнни Трехо, Николас Аарон, Камерон Джек

Описание:

Продолжение известной серии фильмов про смертельную гонку. Главный герой знакомится с агентом телеканала в местном баре, что приводит его к участию в гонке. Теперь в битве участвуют уже не заключенные. Гонщиками становятся все отъявленные негодяи, насильники и убийцы. Когда герой отказывается от гонки, его семью берут в заложники , а самого насильно заставляют сесть за руль. Теперь вся пустыня - это поле для адских гонок. Сможет ли главный герой сохранить жизнь себе и своим близким?

Качество: BDRip 720p
Формат: MKV
Видео: AVC, 1280x720 (16:9), 8336 kbps, 23,976 fps
Аудио №1: DTS / 5.1 / 48 kHz / 768 kbps / 24 bit | RUS
Аудио №2: DTS / 5.1 / 48 kHz / 1509 kbps / 24 bit | ENG
скриншот   скриншот   скриншот   скриншот   скриншот   скриншот   скриншот   скриншот   скриншот   скриншот  

Общее
Уникальный идентификатор : 227704768766158976307820185409663038899 (0xAB4E57E03134E7DE8AD7D472E5D875B3)
Полное имя : D:\Death.Race.4_Beyond.Anarchy.2018.720p Blu-Ray.Rus.Eng.TeamHD-potroks.mkv
Формат : Matroska
Версия формата : Version 4 / Version 2
Размер файла : 8,69 Гбайт
Продолжительность : 1 ч. 50 м.
Общий поток : 11,2 Мбит/сек
Название фильма : Death Race 4 - Beyond Anarchy (2018)
Дата кодирования : UTC 2018-12-09 06:11:15
Программа кодирования : mkvmerge v5.9.0 ('On The Loose') built on Dec 15 2012 16:39:58
Библиотека кодирования : libebml v1.3.0 + libmatroska v1.4.0

Видео
Идентификатор : 1
Формат : AVC
Формат/Информация : Advanced Video Codec
Профиль формата : High@L4.1
Настройки формата : CABAC / 9 Ref Frames
Параметр CABAC формата : Да
Параметр RefFrames формата : 9 кадров
Идентификатор кодека : V_MPEG4/ISO/AVC
Продолжительность : 1 ч. 50 м.
Битрейт : 8937 Кбит/сек
Ширина : 1280 пикселей
Высота : 720 пикселей
Соотношение сторон : 16:9
Режим частоты кадров : Постоянный
Частота кадров : 23,976 (24000/1001) кадра/сек
Цветовое пространство : YUV
Субдискретизация насыщенности : 4:2:0
Битовая глубина : 8 бит
Тип развёртки : Прогрессивная
Бит/(Пиксели*Кадры) : 0.404
Размер потока : 6,75 Гбайт (78%)
Заголовок : potroks
Библиотека кодирования : x264 core 157 r2901M 7d0ff22
Настройки программы : cabac=1 / ref=9 / deblock=1:-3:-3 / analyse=0x3:0x133 / me=umh / subme=11 / psy=1 / psy_rd=0.96:0.00 / mixed_ref=1 / me_range=32 / chroma_me=1 / trellis=2 / 8x8dct=1 / cqm=0 / deadzone=21,11 / fast_pskip=0 / chroma_qp_offset=-2 / threads=9 / lookahead_threads=2 / sliced_threads=0 / nr=0 / decimate=0 / interlaced=0 / bluray_compat=0 / constrained_intra=0 / bframes=12 / b_pyramid=2 / b_adapt=2 / b_bias=0 / direct=3 / weightb=1 / open_gop=0 / weightp=2 / keyint=240 / keyint_min=23 / scenecut=40 / intra_refresh=0 / rc_lookahead=100 / rc=2pass / mbtree=0 / bitrate=8937 / ratetol=1.0 / qcomp=0.70 / qpmin=0 / qpmax=69 / qpstep=4 / cplxblur=20.0 / qblur=0.5 / vbv_maxrate=50000 / vbv_bufsize=50000 / nal_hrd=none / filler=0 / ip_ratio=1.40 / pb_ratio=1.30 / aq=1:0.70
Язык : English
Default : Да
Forced : Нет

Аудио #1
Идентификатор : 2
Формат : DTS
Формат/Информация : Digital Theater Systems
Идентификатор кодека : A_DTS
Продолжительность : 1 ч. 50 м.
Вид битрейта : Постоянный
Битрейт : 768 Кбит/сек
Каналы : 6 каналов
Расположение каналов : Front: L C R, Side: L R, LFE
Частота : 48,0 КГц
Частота кадров : 93,750 кадра/сек (512 SPF)
Битовая глубина : 24 бит
Метод сжатия : С потерями
Размер потока : 610 Мбайт (7%)
Заголовок : Dub | DTS 5.1 @ 768 kbps - Blu-ray CEE
Язык : Russian
Default : Да
Forced : Нет

Аудио #2
Идентификатор : 3
Формат : DTS
Формат/Информация : Digital Theater Systems
Идентификатор кодека : A_DTS
Продолжительность : 1 ч. 50 м.
Вид битрейта : Постоянный
Битрейт : 1509 Кбит/сек
Каналы : 6 каналов
Расположение каналов : Front: L C R, Side: L R, LFE
Частота : 48,0 КГц
Частота кадров : 93,750 кадра/сек (512 SPF)
Битовая глубина : 24 бит
Метод сжатия : С потерями
Размер потока : 1,17 Гбайт (13%)
Заголовок : Original | DTS 5t.1 @ 1509 kbps
Язык : English
Default : Нет
Forced : Нет

Текст #1
Идентификатор : 4
Формат : UTF-8
Идентификатор кодека : S_TEXT/UTF8
Идентификатор кодека/Информация : UTF-8 Plain Text
Заголовок : Forced
Язык : Russian
Default : Да
Forced : Да

Текст #2
Идентификатор : 5
Формат : UTF-8
Идентификатор кодека : S_TEXT/UTF8
Идентификатор кодека/Информация : UTF-8 Plain Text
Заголовок : Blu-ray CEE
Язык : Russian
Default : Нет
Forced : Нет

Текст #3
Идентификатор : 6
Формат : UTF-8
Идентификатор кодека : S_TEXT/UTF8
Идентификатор кодека/Информация : UTF-8 Plain Text
Заголовок : Full
Язык : English
Default : Нет
Forced : Нет

Текст #4
Идентификатор : 7
Формат : UTF-8
Идентификатор кодека : S_TEXT/UTF8
Идентификатор кодека/Информация : UTF-8 Plain Text
Заголовок : SDH
Язык : English
Default : Нет
Forced : Нет

Меню
00:00:00.000 : en:Chapter 01
00:08:12.241 : en:Chapter 02
00:15:38.437 : en:Chapter 03
00:20:44.910 : en:Chapter 04
00:25:46.336 : en:Chapter 05
00:29:20.967 : en:Chapter 06
00:35:49.564 : en:Chapter 07
00:41:29.111 : en:Chapter 08
00:47:44.403 : en:Chapter 09
00:52:28.436 : en:Chapter 10
00:56:38.186 : en:Chapter 11
01:00:13.443 : en:Chapter 12
01:07:00.641 : en:Chapter 13
01:12:50.199 : en:Chapter 14
01:17:51.833 : en:Chapter 15
01:21:55.952 : en:Chapter 16
01:28:38.604 : en:Chapter 17
01:32:56.487 : en:Chapter 18
01:38:02.418 : en:Chapter 19
01:45:55.766 : en:Chapter 20
pb.wtf



Скачать Смертельная гонка 4: Вне анархии через торрент http://img12.lostpic.net/2018/01/31/4ba30934b5d8e2e5dce0bcd93a3e06e6.jpg Скачать фильм Смертельная гонка 4: Вне анархии через торрент бесплантно в хорошем качестве Описание: Продолжение известной серии фильмов про смертельную гонку. Главный герой знакомится с агентом телеканала в местном баре, что ... 10 10 4
Info! Золотая раздача, скачанное не засчитывается.
Торрент: Зарегистрирован [2018-12-09 09:58] · скачан: 185 раз
Статус: √ проверено
Размер: 8.69 GB
Как cкачать? Как скачать Смертельная гонка 4: Вне анархии через торрент | qTorrent

% Раздел Тема Автор DL S | L
Фильмы 2018 [DVDrip, WEB-DLRip, HDrip] (DUB, MVO) [ 1.46 GB ] Смертельная гонка 4: Вне анархии / Death Race 4: Beyond Anarchy [2018 BDRip] - [] Twi7ter Скачать
1 | 0
Фильмы [HD 720p, 1080p] (Хороший звук DUB, MVO) [ 4.33 GB ] Смертельная гонка 4: Вне анархии / Death Race 4: Beyond Anarchy [2018 BDRip-HEVC 1080p ] DUB [] bober100 Скачать
1 | 0
Фильмы (Blu-ray, BD-Remux, HDDVD) [ 38.82 GB ] Смертельная гонка 4: Вне анархии / Death Race 4: Beyond Anarchy [2018 Blu-Ray EUR 1080p ] Бумер Скачать
1 | 0
Фильмы 2018 [DVDrip, WEB-DLRip, HDrip] (DUB, MVO) [ 2.18 GB ] Смертельная гонка 4: Вне анархии / Death Race 4: Beyond Anarchy [2018 BDRip] Dub + Sub + Original Eng -Lexx- Скачать
1 | 0
Фильмы 2018 [DVDrip, WEB-DLRip, HDrip] (DUB, MVO) [ 755 MB ] Смертельная гонка 4: Вне анархии / Death Race: Beyond Anarchy [2018 HDRip BD EUR] coc900 Скачать
1 | 0
Фильмы [HD 720p, 1080p] (Хороший звук DUB, MVO) [ 15.12 GB ] Смертельная гонка 4: Вне анархии / Death Race 4: Beyond Anarchy [2018 BDRip 1080p] DUB [] -Lexx- Скачать
1 | 0
Фильмы 2018 [DVDrip, WEB-DLRip, HDrip] (DUB, MVO) [ 1.46 GB ] Смертельная гонка 4: Вне анархии / Death Race 4: Beyond Anarchy [2018 BDRip] DUB [] -Lexx- Скачать
1 | 0


Последний раз редактировалось: -Lexx- (2018-12-09 11:20), всего редактировалось 2 раз(а)

28-11-2019 20:33  

Отключить всю рекламу на сайте

09-12-2018 10:05 Смертельная гонка 4: Вне анархии Скачать торрент  

Тема сисек раскрыта на 3 скриншоте )))pb.wtf



09-12-2018 12:39 Смертельная гонка 4: Вне анархии Скачать торрент  

FatumNNM писал(а):

Тема сисек раскрыта на 3 скриншоте )))

Да ты прям охотник на темы сисекpb.wtf



    Дорогой пользователь! Огромная просьба, поблагодарите релизера, оцените раздачу и оставьте свои комментарий, если Вы скачали Смертельная гонка 4: Вне анархии через торрент бесплатно! Внесите свою лепту в развитие PiratBit!
    Комментировать посты могут только пользователи прошедшие не сложную регистрацию
    Показать сообщения:    

    Смертельная гонка 4: Вне анархии через торрент
    Скачать бесплатно Смертельная гонка 4: Вне анархии
    Смертельная гонка 4: Вне анархии скачать торрент
    Смертельная гонка 4: Вне анархии смотреть онлайн
    Cкачать фильм Смертельная гонка 4: Вне анархии бесплатно
    Смертельная гонка 4: Вне анархии скачать торрент в хорошем качестве
    Смертельная гонка 4: Вне анархии смотреть онлайн бесплатно в хорошем качестве


    Вы не можете начинать темы
    Вы не можете отвечать на сообщения
    Вы не можете редактировать свои сообщения
    Вы не можете удалять свои сообщения
    Вы не можете голосовать в опросах
    Вы не можете прикреплять файлы к сообщениям
    Вы можете скачивать файлы