новый адрес
Ссылка на приватное зеркало всего за 1$. Внимание количество ограничено!!!

iTunes

1+1

iTunes

мы

WEB-DL

1

iTunes

Чернобыль

iTunes

Ральф против интернета

Лицензия

ПШазам

Лицензия

Оно 2

Лицензия

30
pack

Вам бонус

ВАЖНО

!!Акция!!

Alien_RageХит недели

RePack

Resident Evil 21

ИГРА 18+

pack

RePack

jed

!!Акция!!

Alien_Rage

RePack

fifa19

RePack

Assassins Creed: Odyssey

RePack

NEED FOR SPEED™ PAYBACK

3 сезон

9 сезон

Бесстыжие 9 сезон

Все сериалы

все сериалы на PB.wtf

RePack

FAR CRY 5
Ребята, катастрофически не хватает 1900р. для оплаты серверов за Октябрь (всвязи с блокировками трафик упал в 3 раза), 1-2р., выручайте.
  

Смертельная гонка 4: Вне анархии / Death Race 4: Beyond Anarchy (Дон Майкл Пол) [2018, боевик, BDRip] Dub (BD EUR) + Sub (Rus, Eng) + Original Eng pb.wtf

Смертельная гонка 4: Вне анархии через торрент pb.wtf

Размер: 2.18 GB | Добавлен: 11 мес. назад | Торрент скачан:210 раз
Скачать  

09-12-2018 10:37 Смертельная гонка 4: Вне анархии Скачать торрент  

Смертельная гонка 4: Вне анархии / Death Race 4: Beyond Anarchy

Страна: США, Болгария
Жанр: боевик
Год выпуска: 2018
Продолжительность: 01:50:58
Перевод: Профессиональный (дублированный) | BD EUR
Субтитры: русские (полные + форс.), английские (Full + SDH) - отдельными файлами
Оригинальная аудиодорожка: английский

Режиссер: Дон Майкл Пол / Don Michael Paul

В ролях: Зэк МакГоун, Фредерик Колер, Кристин Мардзано, Еннис Чун-Ян, Кэсси Клер, Люси Саутхолл, Дэнни Гловер, Дэнни Трехо, Николас Аарон, Камерон Джек

Описание: Герой знакомится с агентом телеканала в местном баре, и тот предлагает ему участие в гонке по пустыне. Гонщиками становятся все отъявленные негодяи, насильники и убийцы. Когда герой отказывается, его семью берут в заложники, а самого насильно заставляют сесть за руль.

rating

Качество: BDRip | DEATH_RACE_BA_2018_EUR_BLUEBIRD
Формат: AVI

Видео: 720x400 (1.80:1), 23.976 fps, XviD build 73 ~1914 kbps avg, 0.28 bit/pixel
Аудио 1: 48 kHz, AC3 Dolby Digital, 3/2 (L,C,R,l,r) + LFE ch, ~448 kbps | rus
Аудио 2: 48 kHz, AC3 Dolby Digital, 3/2 (L,C,R,l,r) + LFE ch, ~448 kbps | eng


Сэмпл
Формат                                   : AVI
Формат/Информация                        : Audio Video Interleave
Профиль формата                          : OpenDML
Размер файла                             : 2,18 Гбайт
Продолжительность                        : 1 ч. 50 м.
Общий поток                              : 2818 Кбит/сек
Программа кодирования                    : VirtualDubMod 1.5.10.3 | www.virtualdub-fr.org || (build 2550/release)
Библиотека кодирования                   : VirtualDubMod build 2550/release

Видео
Идентификатор                            : 0
Формат                                   : MPEG-4 Visual
Профиль формата                          : Advanced Simple@L5
Настройки формата                        : BVOP1 / Custom Matrix
Параметр BVOP формата                    : 1
Параметр QPel формата                    : Нет
Параметр GMC формата                     : Без точки перехода
Параметр матрицы формата                 : Выборочная
Идентификатор кодека                     : XVID
Идентификатор кодека/Подсказка           : XviD
Продолжительность                        : 1 ч. 50 м.
Битрейт                                  : 1904 Кбит/сек
Ширина                                   : 720 пикселей
Высота                                   : 400 пикселей
Соотношение сторон                       : 16:9
Частота кадров                           : 23,976 (24000/1001) кадра/сек
Цветовое пространство                    : YUV
Субдискретизация насыщенности            : 4:2:0
Битовая глубина                          : 8 бит
Тип развёртки                            : Прогрессивная
Метод сжатия                             : С потерями
Бит/(Пиксели*Кадры)                      : 0.276
Размер потока                            : 1,48 Гбайт (68%)
Библиотека кодирования                   : XviD 73

Аудио #1
Идентификатор                            : 1
Формат                                   : AC-3
Формат/Информация                        : Audio Coding 3
Коммерческое название                    : Dolby Digital
Идентификатор кодека                     : 2000
Продолжительность                        : 1 ч. 50 м.
Вид битрейта                             : Постоянный
Битрейт                                  : 448 Кбит/сек
Каналы                                   : 6 каналов
Channel layout                           : L R C LFE Ls Rs
Частота                                  : 48,0 КГц
Частота кадров                           : 31,250 кадров/сек (1536 SPF)
Битовая глубина                          : 16 бит
Метод сжатия                             : С потерями
Размер потока                            : 356 Мбайт (16%)
Выравнивание                             : Разделение по промежуткам
Продолжительность промежутка             : 42  мс. (1,00 видеокадр)
Время предзагрузки промежутка            : 500  мс.
Заголовок                                : BD EUR
ServiceKind/String                       : Complete Main

Аудио #2
Идентификатор                            : 2
Формат                                   : AC-3
Формат/Информация                        : Audio Coding 3
Коммерческое название                    : Dolby Digital
Идентификатор кодека                     : 2000
Продолжительность                        : 1 ч. 50 м.
Вид битрейта                             : Постоянный
Битрейт                                  : 448 Кбит/сек
Каналы                                   : 6 каналов
Channel layout                           : L R C LFE Ls Rs
Частота                                  : 48,0 КГц
Частота кадров                           : 31,250 кадров/сек (1536 SPF)
Битовая глубина                          : 16 бит
Метод сжатия                             : С потерями
Размер потока                            : 356 Мбайт (16%)
Выравнивание                             : Разделение по промежуткам
Продолжительность промежутка             : 42  мс. (1,00 видеокадр)
Время предзагрузки промежутка            : 500  мс.
Заголовок                                : English
ServiceKind/String                       : Complete Main
скриншот   скриншот   скриншот   скриншот   скриншот  
pb.wtf



Скачать Смертельная гонка 4: Вне анархии через торрент https://i6.imageban.ru/out/2018/12/09/5d95c18638f0f43400cc0dd78c459ed2.jpg Скачать фильм Смертельная гонка 4: Вне анархии через торрент бесплантно в хорошем качестве Описание: Герой знакомится с агентом телеканала в местном баре, и тот предлагает ему участие в гонке по пустыне. Гонщиками становятся все ... 9.8 10 9
Торрент: Зарегистрирован [2018-12-09 10:37] · скачан: 210 раз
Статус: √ проверено
Размер: 2.18 GB
Как cкачать? Как скачать Смертельная гонка 4: Вне анархии через торрент | qTorrent

28-11-2019 20:33  

Отключить всю рекламу на сайте

    Дорогой пользователь! Огромная просьба, поблагодарите релизера, оцените раздачу и оставьте свои комментарий, если Вы скачали Смертельная гонка 4: Вне анархии через торрент бесплатно! Внесите свою лепту в развитие PiratBit!
    Комментировать посты могут только пользователи прошедшие не сложную регистрацию
    Показать сообщения:    

    Смертельная гонка 4: Вне анархии через торрент
    Скачать бесплатно Смертельная гонка 4: Вне анархии
    Смертельная гонка 4: Вне анархии скачать торрент
    Смертельная гонка 4: Вне анархии смотреть онлайн
    Cкачать фильм Смертельная гонка 4: Вне анархии бесплатно
    Смертельная гонка 4: Вне анархии скачать торрент в хорошем качестве
    Смертельная гонка 4: Вне анархии смотреть онлайн бесплатно в хорошем качестве


    Вы не можете начинать темы
    Вы не можете отвечать на сообщения
    Вы не можете редактировать свои сообщения
    Вы не можете удалять свои сообщения
    Вы не можете голосовать в опросах
    Вы не можете прикреплять файлы к сообщениям
    Вы можете скачивать файлы