Ссылка на приватное зеркало всего за 1$. Внимание количество ограничено!!!

OK

1+1

iTunes

мы

OK

1

WEB-DLRip

Джокер

Пифагор

Ведьмак / The Witcher сериал

iTunes

ПШазам

ОК

Оно 2

iTunes

30
pack

Вам бонус

ВАЖНО

!!Акция!!

Alien_RageХит недели

RePack

Resident Evil 21

ИГРА 18+

pack

RePack

jed

RePack

fifa19

RePack

Assassins Creed: Odyssey

RePack

NEED FOR SPEED™ PAYBACK

4 сезон

9 сезон

Бесстыжие 9 сезон

Все сериалы

все сериалы на PB.wtf

RePack

FAR CRY 5
  

Призрак по ту сторону / The Ghost Beyond (Р. Майкл Гивенс) [2018 г., Ужасы, Триллер, WEB-DLRip, Любительский (многоголосый) (Синема УС)] pb.wtf

Призрак по ту сторону через торрент pb.wtf

Размер: 1.32 GB | Добавлен: 1 год 1 мес. назад | Торрент скачан:94 раза
Скачать  

09-12-2018 11:44 Призрак по ту сторону Скачать торрент  

Призрак по ту сторону / The Ghost Beyond
Год выпуска: 2018
Страна: США
Жанр: Ужасы, Триллер
Продолжительность: 01:29:32
Перевод: Любительский (многоголосый) (Синема УС)
Субтитры: Отсутствуют

Режиссер: Р. Майкл Гивенс

rating

В ролях: Тревор Донован, Вэйл Блум, Бобби Батсон, Сильвио Вульф Буш, Стивен Пол, Мэри Чарльз Х. Миллер, Ревекка Линн Доу, Тифани Арен Дэвис, Монтана Бертолетти, Бенджамин Дрейпер

Описание: Писатель, потерявший вдохновение, переезжает со своей семьей в старый загородный дом. Вскоре, духи дома начинают общаться с его сыном. В итоге молодой семье приходится бороться со злом, которое грозит убить их и навечно привязать к проклятому дому.

Доп. информация: Присутствуют вставки голосовой и текстовой рекламы

Качество: WEB-DLRip
Формат: AVI
Видео кодек: XviD
Аудио кодек: AC3
Видео: Xvid, 720x384, ~1719 Kbps
Аудио#1: AC3, 2 ch, 384 Kbps
скриншот   скриншот   скриншот   скриншот  

Общее
Полное имя : D:\CD\Призрак по ту сторону (2018) WEB-DLRip-MVO\Призрак по ту сторону (2018) WEB-DLRip-MVO.avi
Формат : AVI
Формат/Информация : Audio Video Interleave
Размер файла : 1,32 Гбайт
Продолжительность : 1 ч. 29 м.
Общий поток : 2112 Кбит/сек
Программа кодирования : VirtualDubMod 1.5.10.2 (build 2540/release)
Библиотека кодирования : VirtualDub build 35576/release

Видео
Идентификатор : 0
Формат : MPEG-4 Visual
Профиль формата : Advanced Simple@L5
Настройки формата : BVOP2 / Custom Matrix
Параметр BVOP формата : 2
Параметр QPel формата : Нет
Параметр GMC формата : Без точки перехода
Параметр матрицы формата : Выборочная
Идентификатор кодека : XVID
Идентификатор кодека/Подсказка : XviD
Продолжительность : 1 ч. 29 м.
Битрейт : 1719 Кбит/сек
Ширина : 720 пикселей
Высота : 384 пикселя
Соотношение сторон : 1,85:1
Частота кадров : 23,976 (24000/1001) кадра/сек
Цветовое пространство : YUV
Субдискретизация насыщенности : 4:2:0
Битовая глубина : 8 бит
Тип развёртки : Прогрессивная
Метод сжатия : С потерями
Бит/(Пиксели*Кадры) : 0.259
Размер потока : 1,08 Гбайт (81%)
Библиотека кодирования : XviD 1.2.1 (UTC 2008-12-04)

Аудио
Идентификатор : 1
Формат : AC-3
Формат/Информация : Audio Coding 3
Коммерческое название : Dolby Digital
Идентификатор кодека : 2000
Продолжительность : 1 ч. 29 м.
Вид битрейта : Постоянный
Битрейт : 384 Кбит/сек
Каналы : 2 канала
Channel layout : L R
Частота : 48,0 КГц
Частота кадров : 31,250 кадров/сек (1536 SPF)
Битовая глубина : 16 бит
Метод сжатия : С потерями
Размер потока : 246 Мбайт (18%)
Выравнивание : Разделение по промежуткам
Продолжительность промежутка : 42 мс. (1,00 видеокадр)
Время предзагрузки промежутка : 500 мс.
ServiceKind/String : Complete Main

pb.wtf



Скачать Призрак по ту сторону через торрент http://pic1.kartinco.top/images/12/bozxv.jpg Скачать фильм Призрак по ту сторону через торрент бесплантно в хорошем качестве Описание: Писатель, потерявший вдохновение, переезжает со своей семьей в старый загородный дом. Вскоре, духи дома начинают общаться с его ... 10 10 3
Торрент: Зарегистрирован [2018-12-09 11:44] · скачан: 94 раз
Статус: T временная
Размер: 1.32 GB
Как cкачать? Как скачать Призрак по ту сторону через торрент | qTorrent

28-11-2019 20:33  

Отключить всю рекламу на сайте

09-12-2018 16:05 Призрак по ту сторону Скачать торрент  

Что за ЧУЧЕЛО на крайнем скриншоте?! pb.wtf



10-12-2018 15:48 Призрак по ту сторону Скачать торрент  

Starый писал(а):

Что за ЧУЧЕЛО на крайнем скриншоте?!

"Звонок"смотрел? Вот это она!)pb.wtf



    Дорогой пользователь! Огромная просьба, поблагодарите релизера, оцените раздачу и оставьте свои комментарий, если Вы скачали Призрак по ту сторону через торрент бесплатно! Внесите свою лепту в развитие PiratBit!
    Комментировать посты могут только пользователи прошедшие не сложную регистрацию
    Показать сообщения:    

    Призрак по ту сторону через торрент
    Скачать бесплатно Призрак по ту сторону
    Призрак по ту сторону скачать торрент
    Призрак по ту сторону смотреть онлайн
    Cкачать фильм Призрак по ту сторону бесплатно
    Призрак по ту сторону скачать торрент в хорошем качестве
    Призрак по ту сторону смотреть онлайн бесплатно в хорошем качестве


    Вы не можете начинать темы
    Вы не можете отвечать на сообщения
    Вы не можете редактировать свои сообщения
    Вы не можете удалять свои сообщения
    Вы не можете голосовать в опросах
    Вы не можете прикреплять файлы к сообщениям
    Вы можете скачивать файлы