Marvel's Avengers Deluxe Edition (супер цена) 159р. Внимание количество ограничено!!!

2 сезон

iTunes

iTunes

1

iTunes

iTunes

iTunes

WEBRip

iTunes

30
pack

Новость дня

ВАЖНО

!!Акция!!

Alien_RageХит недели

RePack

Horizon Zero Dawn

ИГРА 18+

pack

RePack

jed

!!Акция!!

Alien_Rage

RePack

fifa19

RePack

Assassins Creed: Odyssey

RePack

NEED FOR SPEED™ PAYBACK

4 сезон

9 сезон

Бесстыжие 9 сезон

Все сериалы

все сериалы на PB.wtf

RePack

FAR CRY 5
  

Маугли: Легенда джунглей / Mowgli: Legend of the Jungle (Энди Серкис) [2018, Драма, комедия, приключения, семейный, экранизация, WEBRip 720p] [DUB] (Пифагор) pb.wtf

Маугли: Легенда джунглей через торрент pb.wtf

Раздают: 1 [ 0 KB/s ]
Размер: 2.18 GB | Добавлен: 1 год 9 мес. назад | Торрент скачан:1762 раза
Скачать  

09-12-2018 14:15 Маугли: Легенда джунглей Скачать торрент  

Маугли: Легенда джунглей / Mowgli: Legend of the Jungle Информация о фильме

Год выпуска: 2018
Жанр: Драма, комедия, приключения, семейный, экранизация
Страна: Великобритания, США
Студия: Imaginarium Productions, Warner Bros., Netflix
Продолжительность: 01:44:52
Перевод: Профессиональный (дублированный) Пифагор
Субтитры: Русские (Forced, Full)

Режиссер: Энди Серкис

В ролях: Роэн Чанд (Mowgli), Кристиан Бэйл (Bagheera), Кейт Бланшетт (Kaa, озвучка), Бенедикт Камбербэтч (Shere Khan), Наоми Харрис (Nisha), Энди Серкис (Baloo), Питер Муллан (Akela), Джек Рейнор (Brother Wolf), Эдди Марсан (Vihaan), Том Холландер (Tabaqui), Мэттью Риз (Lockwood), Фрида Пинто (Messua)

Описание: История о взрослении ребёнка по имени Маугли в волчьей стае в джунглях Индии. Он учится суровым законам джунглей под опекой медведя Балу и пантеры Багиры и принимает обитателей диких джунглей за своих. Всех, кроме одного: страшного тигра Шерхана. Но вскоре мальчику предстоит узнать, что в джунглях его могут поджидать куда большие опасности, чем тигр, и одна из них - его собственное человеческое происхождение, с которым ему придётся столкнуться лицом к лицу, словно с зубастым хищником.

rating

Файл

Качество: WEBRip 720p
Формат: MKV
Видео: MPEG-4 AVC, 1280x534 (2.40:1), 23.976 fps, 2588 Kbps
Аудио: Russian: 48 kHz, AC3, 6 ch, 384 Кбит/с |Дубляж, Пифагор|
Предполагалось, что режиссёром станет Алехандро Гонсалес Иньярриту, однако он не смог из-за занятости в других проектах.

Поначалу премьера фильма была назначена на конец 2016 года, однако она была перенесена на 2018 год в связи с известием, что в 2016 году компания Walt Disney Pictures выпускает на экраны фильм «Книга джунглей» режиссёра Джона Фавро.
Общее
Уникальный идентификатор : 251483592587399690811582794685256421523 (0xBD31FA67F29953829151036AEBBDD093)
Полное имя : D:\Маугли_Mowgli.Legend.of.the.Jungle.2018.720p.WEBRip.NNMClub.mkv
Формат : Matroska
Версия формата : Version 2
Размер файла : 2,18 Гбайт
Продолжительность : 1 ч. 44 м.
Общий поток : 2974 Кбит/сек
Название фильма : Маугли_Mowgli.Legend.of.the.Jungle.2018.720p.WEBRip.NNMClub
Дата кодирования : UTC 2018-12-08 03:03:41
Программа кодирования : mkvmerge v7.7.0 ('Six Voices') 64bit built on Feb 28 2015 23:39:33
Библиотека кодирования : libebml v1.3.1 + libmatroska v1.4.2

Видео
Идентификатор : 1
Формат : AVC
Формат/Информация : Advanced Video Codec
Профиль формата : High@L4.1
Настройки формата : CABAC / 12 Ref Frames
Параметр CABAC формата : Да
Параметр RefFrames формата : 12 кадров
Идентификатор кодека : V_MPEG4/ISO/AVC
Продолжительность : 1 ч. 44 м.
Битрейт : 2588 Кбит/сек
Ширина : 1280 пикселей
Высота : 534 пикселя
Соотношение сторон : 2,40:1
Режим частоты кадров : Постоянный
Частота кадров : 23,976 (24000/1001) кадра/сек
Цветовое пространство : YUV
Субдискретизация насыщенности : 4:2:0
Битовая глубина : 8 бит
Тип развёртки : Прогрессивная
Бит/(Пиксели*Кадры) : 0.158
Размер потока : 1,85 Гбайт (85%)
Заголовок : Маугли_Mowgli.Legend.of.the.Jungle.2018.720p.WEBRip.NNMClub
Библиотека кодирования : x264 core 157 r2935 545de2f
Настройки программы : cabac=1 / ref=12 / deblock=1:-3:-3 / analyse=0x3:0x133 / me=umh / subme=10 / psy=1 / psy_rd=1.00:0.25 / mixed_ref=1 / me_range=24 / chroma_me=1 / trellis=2 / 8x8dct=1 / cqm=0 / deadzone=6,6 / fast_pskip=0 / chroma_qp_offset=-4 / threads=12 / lookahead_threads=2 / sliced_threads=0 / nr=0 / decimate=0 / interlaced=0 / bluray_compat=0 / constrained_intra=0 / bframes=8 / b_pyramid=2 / b_adapt=2 / b_bias=0 / direct=1 / weightb=1 / open_gop=0 / weightp=2 / keyint=240 / keyint_min=23 / scenecut=40 / intra_refresh=0 / rc_lookahead=40 / rc=2pass / mbtree=1 / bitrate=2588 / ratetol=1.0 / qcomp=0.60 / qpmin=0 / qpmax=69 / qpstep=4 / cplxblur=20.0 / qblur=0.5 / vbv_maxrate=50000 / vbv_bufsize=62500 / nal_hrd=none / filler=0 / ip_ratio=1.10 / aq=3:0.90
Язык : English
Default : Да
Forced : Нет

Аудио
Идентификатор : 2
Формат : AC-3
Формат/Информация : Audio Coding 3
Идентификатор кодека : A_AC3
Продолжительность : 1 ч. 44 м.
Вид битрейта : Постоянный
Битрейт : 384 Кбит/сек
Каналы : 6 каналов
Расположение каналов : Front: L C R, Side: L R, LFE
Частота : 48,0 КГц
Частота кадров : 31,250 кадров/сек (1536 SPF)
Битовая глубина : 16 бит
Метод сжатия : С потерями
Размер потока : 288 Мбайт (13%)
Заголовок : Маугли_Mowgli.Legend.of.the.Jungle.2018.720p.WEBRip.NNMClub
Язык : Russian
ServiceKind/String : Complete Main
Default : Да
Forced : Нет

Текст #1
Идентификатор : 3
Формат : UTF-8
Идентификатор кодека : S_TEXT/UTF8
Идентификатор кодека/Информация : UTF-8 Plain Text
Заголовок : Форс.
Язык : Russian
Default : Да
Forced : Нет

Текст #2
Идентификатор : 4
Формат : UTF-8
Идентификатор кодека : S_TEXT/UTF8
Идентификатор кодека/Информация : UTF-8 Plain Text
Заголовок : Полные
Язык : Russian
Default : Нет
Forced : Нет
pb.wtf



Скачать Маугли: Легенда джунглей через торрент http://pic1.kartinco.top/images/12/mi18y.jpg Скачать фильм Маугли: Легенда джунглей через торрент бесплантно в хорошем качестве Описание: История о взрослении ребёнка по имени Маугли в волчьей стае в джунглях Индии. Он учится суровым законам джунглей под опекой ... 9.9 10 21
Info! Золотая раздача, скачанное не засчитывается.
Торрент: Зарегистрирован [2018-12-09 14:15] · скачан: 1 762 раз
Статус: √ проверено
Размер: 2.18 GB
Как cкачать? Как скачать Маугли: Легенда джунглей через торрент | qTorrent

% Раздел Тема Автор DL S | L
T Фильмы (WEB-DL 720p, 1080p) [ 4.8 GB ] Маугли: Легенда джунглей / Mowgli: Legend of the Jungle [2018 экранизация WEBRip 1080p] -Lexx- Скачать
1 | 0
Ultra HD (UHD: 2K, 4K, 8K) — видео сверхвысокой чёткости [ 15.16 GB ] Маугли: Легенда джунглей / Mowgli: Legend of the Jungle [2018 экранизация UHD WEBRip 2160p] [SDR] DUB [Пифагор] sheker187 Скачать
1 | 0
Фильмы 2018 [DVDrip, WEB-DLRip, HDrip] (DUB, MVO) [ 1.46 GB ] Маугли: Легенда джунглей / Mowgli: Legend of the Jungle [2018 экранизация WEB-DLRip] - [Пифагор] Twi7ter Скачать
5 | 0
Фильмы 2018 [DVDrip, WEB-DLRip, HDrip] (DUB, MVO) [ 745 MB ] Маугли: Легенда джунглей / Mowgli: Legend of the Jungle [2018 WEB-DLRip-AVC] DUB bober100 Скачать
1 | 0
Фильмы 2018 [DVDrip, WEB-DLRip, HDrip] (DUB, MVO) [ 1.46 GB ] Маугли: Легенда джунглей / Mowgli: Legend of the Jungle [2018 экранизация WEB-DLRip] killermax2013 Скачать
2 | 0

28-11-2019 20:33  

Отключить всю рекламу на сайте

27-12-2018 03:47 Маугли: Легенда джунглей Скачать торрент  

с начала не интересно, к концу фильма начинается интерес. на разок картинкаpb.wtf



02-02-2019 16:17 Маугли: Легенда джунглей Скачать торрент  

честно говоря не очень.Книга джунглей пободрее была. ну на раз можно. а дочери (8 лет) понравился ))))pb.wtf



    Дорогой пользователь! Огромная просьба, поблагодарите релизера, оцените раздачу и оставьте свои комментарий, если Вы скачали Маугли: Легенда джунглей через торрент бесплатно! Внесите свою лепту в развитие PiratBit!
    Комментировать посты могут только пользователи прошедшие не сложную регистрацию
    Показать сообщения:    

    Маугли: Легенда джунглей через торрент
    Скачать бесплатно Маугли: Легенда джунглей
    Маугли: Легенда джунглей скачать торрент
    Маугли: Легенда джунглей смотреть онлайн
    Cкачать фильм Маугли: Легенда джунглей бесплатно
    Маугли: Легенда джунглей скачать торрент в хорошем качестве
    Маугли: Легенда джунглей смотреть онлайн бесплатно в хорошем качестве


    Вы не можете начинать темы
    Вы не можете отвечать на сообщения
    Вы не можете редактировать свои сообщения
    Вы не можете удалять свои сообщения
    Вы не можете голосовать в опросах
    Вы не можете прикреплять файлы к сообщениям
    Вы можете скачивать файлы