Ссылка на приватное зеркало всего за 1$. Внимание количество ограничено!!!

iTunes

1+1

iTunes

мы

WEB-DL

1

iTunes

Чернобыль

iTunes

Ральф против интернета

Лицензия

ПШазам

Лицензия

Оно 2

Лицензия

30
pack

Вам бонус

ВАЖНО

!!Акция!!

Alien_RageХит недели

RePack

Resident Evil 21

ИГРА 18+

pack

RePack

jed

!!Акция!!

Alien_Rage

RePack

fifa19

RePack

Assassins Creed: Odyssey

RePack

NEED FOR SPEED™ PAYBACK

3 сезон

9 сезон

Бесстыжие 9 сезон

Все сериалы

все сериалы на PB.wtf

RePack

FAR CRY 5
Ребята, катастрофически не хватает 1900р. для оплаты серверов за Октябрь (всвязи с блокировками трафик упал в 3 раза), 1-2р., выручайте.
  

Кин / Kin (Джонатан Бэйкер, Джош Бэйкер) [2018 г., фантастика, боевик, HDRip, Дубляж "iTunes"] pb.wtf

Кин через торрент pb.wtf

Размер: 718 MB | Добавлен: 1 год 1 мес. назад | Торрент скачан:136 раз
Скачать  

11-11-2018 18:41 Кин Скачать торрент  

Кин / Kin
Год выпуска: 2018
Страна: США / 21 Laps Entertainment,Hurwitz Creative,Lionsgate
Жанр: фантастика, боевик
Продолжительность: 01:42:54
Перевод: Дубляж (iTunes)

Режиссер: Джонатан Бэйкер, Джош Бэйкер

rating

В ролях: Майлс Труитт, Джек Рейнор, Дэннис Куэйд, Зои Кравиц, Джеймс Франко, Кэрри Кун, Йен Мэтьюз, Гэвин Фокс, Стефан Гарно, Лукас Пенар

Описание: Обнаружив инопланетное оружие, об истинной мощи которого можно только догадываться, обычный школьник оказывается в эпицентре крупных проблем: охоту на него и его брата открывает армия пришельцев, спецслужбы и гангстеры.
Он не выбирал эту судьбу, но теперь только от него зависит — спасет загадочный артефакт наш мир или погубит…

Качество: HDRip
Формат: AVI
Видео кодек: XviD
Аудио кодек: MP3
Видео: 640x272 (2.35:1), 23.976 fps, XviD build 50 ~834 kbps avg, 0.20 bit/pixel
Аудио: 48 kHz, MPEG Layer 3, 2 ch, ~128.00 kbps avg
скриншот   скриншот   скриншот   скриншот  

Общее
Полное имя : F:\ФИЛЬМЫ\Кин.2018.D.HDRip.avi
Формат : AVI
Формат/Информация : Audio Video Interleave
Размер файла : 718 Мбайт
Продолжительность : 1 ч. 42 м.
Режим общего битрейта : Переменный
Общий поток : 975 Кбит/сек
Программа кодирования : VirtualDubMod 1.5.10.3 | www.virtualdub-fr.org || (build 2550/release)
Библиотека кодирования : VirtualDubMod build 2550/release

Видео
Идентификатор : 0
Формат : MPEG-4 Visual
Профиль формата : Advanced Simple@L5
Настройки формата : BVOP1
Параметр BVOP формата : 1
Параметр QPel формата : Нет
Параметр GMC формата : Без точки перехода
Параметр матрицы формата : Default (H.263)
Идентификатор кодека : XVID
Идентификатор кодека/Подсказка : XviD
Продолжительность : 1 ч. 42 м.
Битрейт : 835 Кбит/сек
Ширина : 640 пикселей
Высота : 272 пикселя
Соотношение сторон : 2,35:1
Частота кадров : 23,976 (24000/1001) кадра/сек
Цветовое пространство : YUV
Субдискретизация насыщенности : 4:2:0
Битовая глубина : 8 бит
Тип развёртки : Прогрессивная
Метод сжатия : С потерями
Бит/(Пиксели*Кадры) : 0.200
Размер потока : 615 Мбайт (86%)
Библиотека кодирования : XviD 1.2.1 (UTC 2008-12-04)

Аудио
Идентификатор : 1
Формат : MPEG Audio
Версия формата : Version 1
Профиль формата : Layer 3
Настройки формата : Joint stereo / MS Stereo
Идентификатор кодека : 55
Идентификатор кодека/Подсказка : MP3
Продолжительность : 1 ч. 42 м.
Вид битрейта : Переменный
Битрейт : 128 Кбит/сек
Каналы : 2 канала
Частота : 48,0 КГц
Метод сжатия : С потерями
Размер потока : 94,0 Мбайт (13%)
Выравнивание : Соединение по промежуткам
Продолжительность промежутка : 24 мс. (0,58 видеокадр)
Время предзагрузки промежутка : 486 мс.
Библиотека кодирования : LAME3.98.2

pb.wtf



Скачать Кин через торрент http://pic1.kartinco.top/images/11/7okm3.jpg Скачать фильм Кин через торрент бесплантно в хорошем качестве Описание: Обнаружив инопланетное оружие, об истинной мощи которого можно только догадываться, обычный школьник оказывается в эпицентре ... 10 10 8
Info! Золотая раздача, скачанное не засчитывается.
Торрент: Зарегистрирован [2018-11-11 18:41] · скачан: 136 раз
Статус: √ проверено
Размер: 718 MB
Как cкачать? Как скачать Кин через торрент | qTorrent

% Раздел Тема Автор DL S | L
Зарубежные сериалы [ 7.13 GB ] Новости / The Newsroom / Сезон: 1 / Серии: 10 [2012 HDTVRip] MVO NewStudio wekotila Скачать
1 | 0
Фильмы [HD 720p, 1080p] (Хороший звук DUB, MVO) [ 7.55 GB ] Загнанный / The Hunted [2003 BDRip 1080p]DUB Sub rus + original eng VintMosina Скачать
1 | 0
BBC [ 703 MB ] Действительно ли алкоголь хуже чем экстази? / Is alcohol worse than ecstasy? [2008 Документальный SATRip] Anonymous Скачать
2 | 0
Зарубежные сериалы [ 19 GB ] Вызов / Defiance / Сезон: 1 / Серии: 1-13 из 13 [2013 WEB-DLRip 720p] MVO + Original XLASER Скачать
1 | 0
Русские порно фильмы [ 1.46 GB ] Амазонки предпочитают Викингов / Amazons Prefer Vikings [2008 Feature Anal Double Penetration Group Oral Lesbian Toys DVDRip] sheker187 Скачать
1 | 0
Зарубежные сериалы [ 4.88 GB ] Девять жизней Хлои Кинг / The Nine Lives of Chloe King / Сезон: 1 / Серии: 1-10 [2011 WEB-DLRip] MVO Assasinca Скачать
1 | 0
Сборники на DVD и Сиквелы [DVDrip, WEB-DLRip, HDrip, BDRip] [ 16.46 GB ] Мистер Питкин / Mister Pitkin / 12 фильмов [1953-1966 DVDRip] mihis Скачать
1 | 0

28-11-2019 20:33  

Отключить всю рекламу на сайте

    Дорогой пользователь! Огромная просьба, поблагодарите релизера, оцените раздачу и оставьте свои комментарий, если Вы скачали Кин через торрент бесплатно! Внесите свою лепту в развитие PiratBit!
    Комментировать посты могут только пользователи прошедшие не сложную регистрацию
    Показать сообщения:    

    Кин через торрент
    Скачать бесплатно Кин
    Кин скачать торрент
    Кин смотреть онлайн
    Cкачать фильм Кин бесплатно
    Кин скачать торрент в хорошем качестве
    Кин смотреть онлайн бесплатно в хорошем качестве


    Вы не можете начинать темы
    Вы не можете отвечать на сообщения
    Вы не можете редактировать свои сообщения
    Вы не можете удалять свои сообщения
    Вы не можете голосовать в опросах
    Вы не можете прикреплять файлы к сообщениям
    Вы можете скачивать файлы