Ссылка на приватное зеркало всего за 1$. Внимание количество ограничено!!!

OK

1+1

iTunes

мы

OK

1

WEB-DLRip

Джокер

Пифагор

Ведьмак / The Witcher сериал

iTunes

ПШазам

ОК

Оно 2

iTunes

30
pack

Вам бонус

ВАЖНО

!!Акция!!

Alien_RageХит недели

RePack

Resident Evil 21

ИГРА 18+

pack

RePack

jed

RePack

fifa19

RePack

Assassins Creed: Odyssey

RePack

NEED FOR SPEED™ PAYBACK

4 сезон

9 сезон

Бесстыжие 9 сезон

Все сериалы

все сериалы на PB.wtf

RePack

FAR CRY 5
  

Отклыкаченные / Fanged Up (Кристиан Джеймс) [2017 г., ужасы, комедия, WEB-DLRip] MVO ["Синема УС"] pb.wtf

Отклыкаченные через торрент pb.wtf

Размер: 1.37 GB | Добавлен: 1 год 1 мес. назад | Торрент скачан:195 раз
Скачать  

09-12-2018 19:56 Отклыкаченные Скачать торрент  

Отклыкаченные / Fanged Up
Год выпуска: 2017
Страна: Великобритания
Жанр: Ужасы, комедия
Продолжительность: 01:30:51
Перевод: Любительский (многоголосый) - ["Синема УС"]

Режиссер: Кристиан Джеймс

rating

В ролях: Дэниэл О'Рейли, Даниэль Харольд, Стю Беннет, Вэс Блэквуд, Стивен Маркус, Стивен Беркофф, Лорен Соча, Крис Р. Райт, Хув Сэмюэл, Роланд Манукян

Описание: Дэнни - мелкий мошенник, который работает посудомойщиком в ночном клубе. Однажды он ввязывается в драку, после которой его внезапно отправляют в одну из самых зловещих тюрем Англии - Стоуксвиль. Там он начинает понимать, что это была не случайность, и у администрации тюрьмы на него особые планы.
Качество: WEB-DLRip
Формат: AVI
Видео кодек: XviD
Аудио кодек: AC3
Видео: XviD, 1760 Кбит/с, 720x304
Аудио: Русский, AC3, 2 ch, 384 Кбит/с

Видео
Идентификатор : 0
Формат : MPEG-4 Visual
Профиль формата : Advanced Simple@L5
Настройки формата : BVOP2 / Custom Matrix
Параметр BVOP формата : 2
Параметр QPel формата : Нет
Параметр GMC формата : Без точки перехода
Параметр матрицы формата : Выборочная
Идентификатор кодека : XVID
Идентификатор кодека/Подсказка : XviD
Продолжительность : 1 ч. 30 м.
Битрейт : 1760 Кбит/сек
Ширина : 720 пикселей
Высота : 304 пикселя
Соотношение сторон : 2,35:1
Частота кадров : 23,976 (24000/1001) кадра/сек
Цветовое пространство : YUV
Субдискретизация насыщенности : 4:2:0
Битовая глубина : 8 бит
Тип развёртки : Прогрессивная
Метод сжатия : С потерями
Бит/(Пиксели*Кадры) : 0.335
Размер потока : 1,12 Гбайт (82%)
Библиотека кодирования : XviD 1.2.1 (UTC 2008-12-04)

Аудио
Идентификатор : 1
Формат : AC-3
Формат/Информация : Audio Coding 3
Коммерческое название : Dolby Digital
Идентификатор кодека : 2000
Продолжительность : 1 ч. 30 м.
Вид битрейта : Постоянный
Битрейт : 384 Кбит/сек
Каналы : 2 канала
Channel layout : L R
Частота : 48,0 КГц
Частота кадров : 31,250 кадров/сек (1536 SPF)
Битовая глубина : 16 бит
Метод сжатия : С потерями
Размер потока : 250 Мбайт (18%)
Выравнивание : Разделение по промежуткам
Продолжительность промежутка : 42 мс. (1,00 видеокадр)
Время предзагрузки промежутка : 500 мс.
ServiceKind/String : Complete Main

скриншот   скриншот   скриншот   скриншот   скриншот  

Присутствуют вставки голосовой и текстовой рекламы!pb.wtf



Скачать Отклыкаченные через торрент http://pic1.kartinco.top/images/12/my2kp.jpg Скачать фильм Отклыкаченные через торрент бесплантно в хорошем качестве Описание: Дэнни - мелкий мошенник, который работает посудомойщиком в ночном клубе. Однажды он ввязывается в драку, после которой его ... 10 10 1
Торрент: Зарегистрирован [2018-12-09 19:56] · скачан: 195 раз
Статус: T временная
Размер: 1.37 GB
Как cкачать? Как скачать Отклыкаченные через торрент | qTorrent

28-11-2019 20:33  

Отключить всю рекламу на сайте

09-12-2018 22:44 Отклыкаченные Скачать торрент  

ну прям аццкий рейтинг для такого жанра. а по трейлеру и не скажешь - унылое г. какое-то:


pb.wtf



10-12-2018 06:50 Отклыкаченные Скачать торрент  

заценимpb.wtf



10-12-2018 15:55 Отклыкаченные Скачать торрент  

urvic писал(а):

заценим

И какова цена? pb.wtf



16-12-2018 10:11 Отклыкаченные Скачать торрент  

застряло на 96% и виситpb.wtf



    Дорогой пользователь! Огромная просьба, поблагодарите релизера, оцените раздачу и оставьте свои комментарий, если Вы скачали Отклыкаченные через торрент бесплатно! Внесите свою лепту в развитие PiratBit!
    Комментировать посты могут только пользователи прошедшие не сложную регистрацию
    Показать сообщения:    

    Отклыкаченные через торрент
    Скачать бесплатно Отклыкаченные
    Отклыкаченные скачать торрент
    Отклыкаченные смотреть онлайн
    Cкачать фильм Отклыкаченные бесплатно
    Отклыкаченные скачать торрент в хорошем качестве
    Отклыкаченные смотреть онлайн бесплатно в хорошем качестве


    Вы не можете начинать темы
    Вы не можете отвечать на сообщения
    Вы не можете редактировать свои сообщения
    Вы не можете удалять свои сообщения
    Вы не можете голосовать в опросах
    Вы не можете прикреплять файлы к сообщениям
    Вы можете скачивать файлы