новый адрес
Ссылка на приватное зеркало всего за 1$. Внимание количество ограничено!!!

iTunes

1+1

iTunes

мы

iTunes

1

iTunes

Чернобыль

iTunes

Ральф против интернета

Лицензия

ПШазам

Лицензия

Оно 2

Лицензия

30
pack

Вам бонус

ВАЖНО

!!Акция!!

Alien_RageХит недели

RePack

Resident Evil 21

ИГРА 18+

pack

RePack

jed

!!Акция!!

Alien_Rage

RePack

fifa19

RePack

Assassins Creed: Odyssey

RePack

NEED FOR SPEED™ PAYBACK

3 сезон

9 сезон

Бесстыжие 9 сезон

Все сериалы

все сериалы на PB.wtf

RePack

FAR CRY 5
Ребята, катастрофически не хватает 1900р. для оплаты серверов за Октябрь (всвязи с блокировками трафик упал в 3 раза), 1-2р., выручайте.
  

Маугли: Легенда джунглей / Legend of the Jungle (Энди Серкис) [2018 г., Драма, Приключения, WEB-DLRip] DUB [Пифагор] pb.wtf

Маугли: Легенда джунглей через торрент pb.wtf

Раздают: 4 [ 0 KB/s ]
Размер: 746 MB | Добавлен: 11 мес. назад | Торрент скачан:213 раз
Скачать  

09-12-2018 21:20 Маугли: Легенда джунглей Скачать торрент  

Маугли: Легенда джунглей / Legend of the Jungle
Год выпуска: 2018
Страна: Великобритания, США
Жанр: Драма,Приключения
Продолжительность: 01:44:00
Перевод: Профессиональный (дублирование) [Пифагор]
Субтитры: Русские форсированные (вшитые)

Режиссер: Энди Серкис

Премьера в мире: 25 ноября 2018

rating

В ролях: Роэн Чанд, Кристиан Бэйл, Кейт Бланшетт, Бенедикт Камбербэтч, Наоми Харрис, Энди Серкис, Питер Муллан, Джек Рейнор, Эдди Марсан, Том Холландер

Описание: История о взрослении ребёнка по имени Маугли в волчьей стае в джунглях Индии. Он учится суровым законам джунглей под опекой медведя Балу и пантеры Багиры и принимает обитателей диких джунглей за своих. Всех, кроме одного: страшного тигра Шерхана. Но вскоре мальчику предстоит узнать, что в джунглях его могут поджидать куда большие опасности, чем тигр, и одна из них — его собственное человеческое происхождение, с которым ему придётся столкнуться лицом к лицу, словно с зубастым хищником.

Качество: WEB-DLRip
Формат: AVI
Видео кодек: XviD
Аудио кодек: MP3
Видео: XviD 858 Кбит/сек,688x288, в 23,976 кадров/сек
Аудио#1: MP3 128 Кбит/сек,48,0 КГц, 2 канала

скриншот   скриншот   скриншот   скриншот  
скриншот   скриншот   скриншот   скриншот   скриншот   скриншот  





Общее
Полное имя : D:\Фильмы с PIRATBIT\Maugli.2018.XviD.WEB-DLRip.745Mb.GeneralFilm.avi
Формат : AVI
Формат/Информация : Audio Video Interleave
Размер файла : 746 Мбайт
Продолжительность : 1 ч. 44 м.
Общий поток : 995 Кбит/сек
Программа кодирования : VirtualDubMod 1.5.10.3 | www.virtualdub-fr.org || (build 2550/release)
Библиотека кодирования : VirtualDubMod build 2550/release

Видео
Идентификатор : 0
Формат : MPEG-4 Visual
Профиль формата : Advanced Simple@L5
Параметр BVOP формата : 1
Параметр QPel формата : Нет
Параметр GMC формата : Без точки перехода
Параметр матрицы формата : Выборочная
Идентификатор кодека : XVID
Идентификатор кодека/Подсказка : XviD
Продолжительность : 1 ч. 44 м.
Битрейт : 858 Кбит/сек
Ширина : 688 пикселей
Высота : 288 пикселей
Соотношение сторон : 2,40:1
Частота кадров : 23,976 (23976/1000) кадра/сек
Цветовое пространство : YUV
Субдискретизация насыщенности : 4:2:0
Битовая глубина : 8 бит
Тип развёртки : Прогрессивная
Метод сжатия : С потерями
Бит/(Пиксели*Кадры) : 0.181
Размер потока : 643 Мбайт (86%)
Библиотека кодирования : XviD 73

Аудио
Идентификатор : 1
Формат : MPEG Audio
Версия формата : Version 1
Профиль формата : Layer 3
Идентификатор кодека : 55
Идентификатор кодека/Подсказка : MP3
Продолжительность : 1 ч. 44 м.
Вид битрейта : Постоянный
Битрейт : 128 Кбит/сек
Каналы : 2 канала
Частота : 48,0 КГц
Метод сжатия : С потерями
Размер потока : 96,0 Мбайт (13%)
Выравнивание : Соединение по промежуткам
Продолжительность промежутка : 42 мс. (1,00 видеокадр)
Время предзагрузки промежутка : 504 мс.
Библиотека кодирования : LAME3.99r
Настройки программы : -m s -V 4 -q 2 -lowpass 17 -b 128

pb.wtf



Скачать Маугли: Легенда джунглей через торрент http://pic1.kartinco.top/images/12/b52kx.jpg Скачать фильм Маугли: Легенда джунглей через торрент бесплантно в хорошем качестве Описание: История о взрослении ребёнка по имени Маугли в волчьей стае в джунглях Индии. Он учится суровым законам джунглей под опекой ... 10 10 5
Info! Золотая раздача, скачанное не засчитывается.
Торрент: Зарегистрирован [2018-12-09 21:20] · скачан: 213 раз
Статус: √ проверено
Размер: 746 MB
Как cкачать? Как скачать Маугли: Легенда джунглей через торрент | qTorrent

% Раздел Тема Автор DL S | L
Фильмы (WEB-DL 720p, 1080p) [ 2.18 GB ] Маугли: Легенда джунглей / Mowgli: Legend of the Jungle [2018 экранизация WEBRip 720p] -Lexx- Скачать
8 | 0
T Фильмы (WEB-DL 720p, 1080p) [ 4.8 GB ] Маугли: Легенда джунглей / Mowgli: Legend of the Jungle [2018 экранизация WEBRip 1080p] -Lexx- Скачать
9 | 0
Ultra HD (UHD: 2K, 4K, 8K) — видео сверхвысокой чёткости [ 15.16 GB ] Маугли: Легенда джунглей / Mowgli: Legend of the Jungle [2018 экранизация UHD WEBRip 2160p] [SDR] DUB [Пифагор] sheker187 Скачать
3 | 0
Фильмы 2018 [DVDrip, WEB-DLRip, HDrip] (DUB, MVO) [ 1.46 GB ] Маугли: Легенда джунглей / Mowgli: Legend of the Jungle [2018 экранизация WEB-DLRip] - [Пифагор] Twi7ter Скачать
13 | 0
Фильмы 2018 [DVDrip, WEB-DLRip, HDrip] (DUB, MVO) [ 745 MB ] Маугли: Легенда джунглей / Mowgli: Legend of the Jungle [2018 WEB-DLRip-AVC] DUB bober100 Скачать
1 | 0
Фильмы 2018 [DVDrip, WEB-DLRip, HDrip] (DUB, MVO) [ 1.46 GB ] Маугли: Легенда джунглей / Mowgli: Legend of the Jungle [2018 экранизация WEB-DLRip] killermax2013 Скачать
4 | 0

28-11-2019 20:33  

Отключить всю рекламу на сайте

10-12-2018 06:39 Маугли: Легенда джунглей Скачать торрент  

Топик был перенесен из форума Оформление раздач (Кино, Видео и ТВ) в форум Фильмы 2018 [DVDrip, WEB-DLRip, HDrip] (DUB, MVO)


-Lexx-pb.wtf



    Дорогой пользователь! Огромная просьба, поблагодарите релизера, оцените раздачу и оставьте свои комментарий, если Вы скачали Маугли: Легенда джунглей через торрент бесплатно! Внесите свою лепту в развитие PiratBit!
    Комментировать посты могут только пользователи прошедшие не сложную регистрацию
    Показать сообщения:    

    Маугли: Легенда джунглей через торрент
    Скачать бесплатно Маугли: Легенда джунглей
    Маугли: Легенда джунглей скачать торрент
    Маугли: Легенда джунглей смотреть онлайн
    Cкачать фильм Маугли: Легенда джунглей бесплатно
    Маугли: Легенда джунглей скачать торрент в хорошем качестве
    Маугли: Легенда джунглей смотреть онлайн бесплатно в хорошем качестве


    Вы не можете начинать темы
    Вы не можете отвечать на сообщения
    Вы не можете редактировать свои сообщения
    Вы не можете удалять свои сообщения
    Вы не можете голосовать в опросах
    Вы не можете прикреплять файлы к сообщениям
    Вы можете скачивать файлы