2 сезон

iTunes

1 сезон

1

iTunes

iTunes

iTunes

1 сезон

RePack

30

ИГРА 18+

pack

ВАЖНО

!!Акция!!

Alien_RageХит недели

RePack

MK11
pack

Забери бонус

RePack

jed

!!Акция!!

Alien_Rage

RePack

fifa19

RePack

Assassins Creed: Odyssey

RePack

NEED FOR SPEED™ PAYBACK

4 сезон

9 сезон

Бесстыжие 9 сезон

Все сериалы

все сериалы на PB.wtf

RePack

FAR CRY 5
  

Лютый / Сезон: 1 / Серии: 1-8 из 8 (Станислав Мареев) [2013, Боевик, криминал, SATRip] pb.wtf

Лютый через торрент pb.wtf

Размер: 4.59 GB | Добавлен: 1 год 10 мес. назад | Торрент скачан:106 раз
Скачать  

10-12-2018 05:22 Лютый Скачать торрент  

ЛютыйГод выпуска: 2013
Страна: Россия
Жанр: Боевик, криминал
Продолжительность: ~ 00:45:00 серия!
Субтитры: отсутствуют

Режиссер: Станислав Мареев

rating

В ролях:

Владимир Епифанцев, Ирина Апексимова, Елена Панова, Михаил Трухин, Дарья Мельникова

Описание:

Главного героя, полицейского Максима Лютова, долго считали убитым. Когда он возвращается к работе в полиции и становится новым начальником убойного отдела, у многих коллег это вызывает шок.Старые знакомые смотрят на него как на ожившего покойника.Новые сотрудники отделения с трудом воспринимают его своеобразные манеры и внешний вид.Лютов груб, странно выглядит, странно шутит, и методы работы у него странные.

Качество: SATRip
Формат: AVI

Видео: 1550 kb/s, 720x384
Аудио: MP3, 192 kb/s, (2 ch)
скриншот  скриншот  скриншот  

Общее
Полное имя : E:\Ljutyj.2013.SATRip.by.GeneralFilm\01.Ljutyj.2013.SATRip.by.GeneralFilm.avi
Формат : AVI
Формат/Информация : Audio Video Interleave
Размер файла : 630 Мбайт
Продолжительность : 50 м. 17 с.
Общий поток : 1752 Кбит/сек
Программа кодирования : VirtualDubMod 1.5.10.3 | www.virtualdub-fr.org || (build 2550/release)
Библиотека кодирования : VirtualDubMod build 2550/release

Видео
Идентификатор : 0
Формат : MPEG-4 Visual
Профиль формата : Advanced Simple@L5
Настройки формата : BVOP1
Параметр BVOP формата : 1
Параметр QPel формата : Нет
Параметр GMC формата : Без точки перехода
Параметр матрицы формата : Default (H.263)
Идентификатор кодека : XVID
Идентификатор кодека/Подсказка : XviD
Продолжительность : 50 м. 17 с.
Битрейт : 1551 Кбит/сек
Ширина : 720 пикселей
Высота : 384 пикселя
Соотношение сторон : 1,85:1
Частота кадров : 25,000 кадров/сек
Цветовое пространство : YUV
Субдискретизация насыщенности : 4:2:0
Битовая глубина : 8 бит
Тип развёртки : Прогрессивная
Метод сжатия : С потерями
Бит/(Пиксели*Кадры) : 0.224
Размер потока : 558 Мбайт (88%)
Библиотека кодирования : XviD 73

Аудио
Идентификатор : 1
Формат : MPEG Audio
Версия формата : Version 1
Профиль формата : Layer 3
Идентификатор кодека : 55
Идентификатор кодека/Подсказка : MP3
Продолжительность : 50 м. 17 с.
Вид битрейта : Постоянный
Битрейт : 192 Кбит/сек
Каналы : 2 канала
Частота : 48,0 КГц
Частота кадров : 41,667 кадра/сек (1152 SPF)
Метод сжатия : С потерями
Размер потока : 69,1 Мбайт (11%)
Выравнивание : Соединение по промежуткам
Продолжительность промежутка : 40 мс. (1,00 видеокадр)
Время предзагрузки промежутка : 504 мс.
Библиотека кодирования : LAME3.99r
Настройки программы : -m s -V 4 -q 0 -lowpass 18.6 -b 192

pb.wtf



Скачать Лютый через торрент https://i108.fastpic.ru/big/2018/1209/54/8f73c9cac0be75f9fc9103566c687f54.jpg Скачать фильм Лютый через торрент бесплантно в хорошем качестве Описание: Главного героя, полицейского Максима Лютова, долго считали убитым. Когда он возвращается к работе в полиции и становится новым ... 10 10 6
Торрент: Зарегистрирован [2018-12-10 05:22] · скачан: 106 раз
Статус: √ проверено
Размер: 4.59 GB
Как cкачать? Как скачать Лютый через торрент | qTorrent

% Раздел Тема Автор DL S | L
Наши сериалы [ 5.4 GB ] Лютый / Сезон: 1 / Серии: 1-8 из 8 [2013 WEB-DL 720p] bober100 Скачать
1 | 0
Наши сериалы [ 11.36 GB ] Лютый / Сезон: 1 / Серии: 1-8 из 8 [2013 WEB-DL 1080p] bober100 Скачать
1 | 0

28-11-2019 20:33  

Отключить всю рекламу на сайте

    Дорогой пользователь! Огромная просьба, поблагодарите релизера, оцените раздачу и оставьте свои комментарий, если Вы скачали Лютый через торрент бесплатно! Внесите свою лепту в развитие PiratBit!
    Комментировать посты могут только пользователи прошедшие не сложную регистрацию
    Показать сообщения:    

    Лютый через торрент
    Скачать бесплатно Лютый
    Лютый скачать торрент
    Лютый смотреть онлайн
    Cкачать фильм Лютый бесплатно
    Лютый скачать торрент в хорошем качестве
    Лютый смотреть онлайн бесплатно в хорошем качестве


    Вы не можете начинать темы
    Вы не можете отвечать на сообщения
    Вы не можете редактировать свои сообщения
    Вы не можете удалять свои сообщения
    Вы не можете голосовать в опросах
    Вы не можете прикреплять файлы к сообщениям
    Вы можете скачивать файлы