Ссылка на приватное зеркало нашего сайта всего за 1$. Внимание количество ограничено!!!

2 сезон

iTunes

1 сезон

1

iTunes

iTunes

iTunes

1 сезон

RePack

30

ИГРА 18+

pack

ВАЖНО

!!Акция!!

Alien_RageХит недели

RePack

MK11
pack

Забери бонус

RePack

jed

!!Акция!!

Alien_Rage

RePack

fifa19

RePack

Assassins Creed: Odyssey

RePack

NEED FOR SPEED™ PAYBACK

4 сезон

9 сезон

Бесстыжие 9 сезон

Все сериалы

все сериалы на PB.wtf

RePack

FAR CRY 5
  

Лютый / Сезон: 1 / Серии: 1-8 из 8 (Станислав Мареев) [2013, Боевик, криминал, WEB-DL 1080p] pb.wtf

Лютый через торрент pb.wtf

Размер: 11.36 GB | Добавлен: 1 год 10 мес. назад | Торрент скачан:40 раз
Скачать  

10-12-2018 05:30 Лютый Скачать торрент  

ЛютыйГод выпуска: 2013
Страна: Россия
Жанр: Боевик, криминал
Продолжительность: ~ 00:45:00 серия!
Субтитры: отсутствуют

Режиссер: Станислав Мареев

rating

В ролях:

Владимир Епифанцев, Ирина Апексимова, Елена Панова, Михаил Трухин, Дарья Мельникова

Описание:

Главного героя, полицейского Максима Лютова, долго считали убитым. Когда он возвращается к работе в полиции и становится новым начальником убойного отдела, у многих коллег это вызывает шок.Старые знакомые смотрят на него как на ожившего покойника.Новые сотрудники отделения с трудом воспринимают его своеобразные манеры и внешний вид.Лютов груб, странно выглядит, странно шутит, и методы работы у него странные.

Качество: WEB-DL 1080p
Формат: MKV

Видео: MPEG-4 AVC, ~ 4000 Кбит/с, 1920x1080
Аудио: AC3, 2 ch, 192 Кбит/с

Общее
Уникальный идентификатор : 208277496862377597527652851544896490378 (0x9CB0C96B6470CCFBB6CB0B00739ACB8A)
Полное имя : E:\Lyutyy.2013.WEB-DL.(1080p).Nikolspup\Lyutyy.(1.seriya.iz.8).2013.WEB-DL.(1080p).Nikolspup.mkv
Формат : Matroska
Версия формата : Version 4 / Version 2
Размер файла : 1,50 Гбайт
Продолжительность : 51 м. 20 с.
Общий поток : 4194 Кбит/сек
Дата кодирования : UTC 2013-12-02 20:49:17
Программа кодирования : mkvmerge v6.3.0 ('You can't stop me!') built on Jun 28 2013 20:09:41
Библиотека кодирования : libebml v1.3.0 + libmatroska v1.4.0 / Lavf54.59.106

Видео
Идентификатор : 1
Формат : AVC
Формат/Информация : Advanced Video Codec
Профиль формата : High@L4
Настройки формата : CABAC / 3 Ref Frames
Параметр CABAC формата : Да
Параметр RefFrames формата : 3 кадра
Идентификатор кодека : V_MPEG4/ISO/AVC
Продолжительность : 51 м. 20 с.
Битрейт : 4000 Кбит/сек
Ширина : 1920 пикселей
Высота : 1080 пикселей
Соотношение сторон : 16:9
Режим частоты кадров : Постоянный
Частота кадров : 25,000 кадров/сек
Цветовое пространство : YUV
Субдискретизация насыщенности : 4:2:0
Битовая глубина : 8 бит
Тип развёртки : Прогрессивная
Бит/(Пиксели*Кадры) : 0.077
Размер потока : 1,41 Гбайт (93%)
Библиотека кодирования : x264 core 120
Настройки программы : cabac=1 / ref=3 / deblock=1:0:0 / analyse=0x3:0x133 / me=umh / subme=7 / psy=1 / psy_rd=1.00:0.00 / mixed_ref=1 / me_range=32 / chroma_me=1 / trellis=2 / 8x8dct=1 / cqm=0 / deadzone=21,11 / fast_pskip=1 / chroma_qp_offset=-2 / threads=12 / sliced_threads=0 / nr=0 / decimate=1 / interlaced=0 / bluray_compat=0 / constrained_intra=0 / bframes=0 / weightp=0 / keyint=75 / keyint_min=26 / scenecut=40 / intra_refresh=0 / rc_lookahead=50 / rc=2pass / mbtree=0 / bitrate=4000 / ratetol=1.0 / qcomp=0.20 / qpmin=10 / qpmax=51 / qpstep=4 / cplxblur=20.0 / qblur=0.5 / vbv_maxrate=5000 / vbv_bufsize=5000 / nal_hrd=none / ip_ratio=1.40 / aq=1:1.00
Default : Да
Forced : Нет
Цветовой диапазон : Limited
Основные цвета : BT.709
Характеристики трансфера : BT.709
Коэффициенты матрицы : BT.709

Аудио
Идентификатор : 2
Формат : AC-3
Формат/Информация : Audio Coding 3
Идентификатор кодека : A_AC3
Продолжительность : 51 м. 20 с.
Вид битрейта : Постоянный
Битрейт : 192 Кбит/сек
Каналы : 2 канала
Расположение каналов : Front: L R
Частота : 44,1 КГц
Частота кадров : 28,711 кадров/сек (1536 SPF)
Битовая глубина : 16 бит
Метод сжатия : С потерями
Размер потока : 70,5 Мбайт (5%)
ServiceKind/String : Complete Main
Default : Да
Forced : Нет

pb.wtf



Скачать Лютый через торрент https://i108.fastpic.ru/big/2018/1209/54/8f73c9cac0be75f9fc9103566c687f54.jpg Скачать фильм Лютый через торрент бесплантно в хорошем качестве Описание: Главного героя, полицейского Максима Лютова, долго считали убитым. Когда он возвращается к работе в полиции и становится новым ... 10 10 7
Торрент: Зарегистрирован [2018-12-10 05:30] · скачан: 40 раз
Статус: √ проверено
Размер: 11.36 GB
Как cкачать? Как скачать Лютый через торрент | qTorrent

% Раздел Тема Автор DL S | L
Наши сериалы [ 5.4 GB ] Лютый / Сезон: 1 / Серии: 1-8 из 8 [2013 WEB-DL 720p] bober100 Скачать
1 | 0
Наши сериалы [ 4.59 GB ] Лютый / Сезон: 1 / Серии: 1-8 из 8 [2013 SATRip] bober100 Скачать
1 | 0

28-11-2019 20:33  

Отключить всю рекламу на сайте

    Дорогой пользователь! Огромная просьба, поблагодарите релизера, оцените раздачу и оставьте свои комментарий, если Вы скачали Лютый через торрент бесплатно! Внесите свою лепту в развитие PiratBit!
    Комментировать посты могут только пользователи прошедшие не сложную регистрацию
    Показать сообщения:    

    Лютый через торрент
    Скачать бесплатно Лютый
    Лютый скачать торрент
    Лютый смотреть онлайн
    Cкачать фильм Лютый бесплатно
    Лютый скачать торрент в хорошем качестве
    Лютый смотреть онлайн бесплатно в хорошем качестве


    Вы не можете начинать темы
    Вы не можете отвечать на сообщения
    Вы не можете редактировать свои сообщения
    Вы не можете удалять свои сообщения
    Вы не можете голосовать в опросах
    Вы не можете прикреплять файлы к сообщениям
    Вы можете скачивать файлы