Ссылка на приватное зеркало всего за 1$. Внимание количество ограничено!!!

OK

1+1

iTunes

мы

OK

1

WEB-DLRip

Джокер

Пифагор

Ведьмак / The Witcher сериал

Лицензия

ПШазам

ОК

Оно 2

iTunes

30
pack

Вам бонус

ВАЖНО

!!Акция!!

Alien_RageХит недели

RePack

Resident Evil 21

ИГРА 18+

pack

RePack

jed

!!Акция!!

Alien_Rage

RePack

fifa19

RePack

Assassins Creed: Odyssey

RePack

NEED FOR SPEED™ PAYBACK

4 сезон

9 сезон

Бесстыжие 9 сезон

Все сериалы

все сериалы на PB.wtf

RePack

FAR CRY 5
  

Цена победы / Worth (Эдуардо Кастрильо) [2018, драма, спорт, WEB-DL 720p] MVO ["Синема УС"] pb.wtf

Цена победы через торрент pb.wtf

Размер: 3.19 GB | Добавлен: 1 год 1 мес. назад | Торрент скачан:28 раз
Скачать  

10-12-2018 05:57 Цена победы Скачать торрент  

Цена победы / WorthГод выпуска: 2018
Страна: США
Жанр: драма, спорт
Продолжительность: 01:26:21
Перевод: Любительский (многоголосый) | "Синема УС"
Субтитры: отсутствуют

Режиссер: Эдуардо Кастрильо

rating

В ролях:

Тони Тодд, Клифтон Пауэлл, Мигель А. Нуньес мл., Эдуардо Кастрильо, Джон Джиллигэн, Франко Аллен, Саманта Кейли, Уилли Барсена, Мариса Ячмень, Филлип Кэйрс

Описание:

Рикки, один из лучших бойцов в муай-тай. Он тяжело тренируется, чтобы получить чемпионский титул, но параллельно ему приходится справляться с денежными проблемами, семейной драмой, а так же находить время для новой девушки.

Качество: WEB-DL 720p
Формат: MKV

Видео: h.264, 4 897 Кбит/с, 1280x544
Аудио#1: Русский, (AC3, 2 ch, 384 Кбит/с)
скриншот  скриншот  скриншот  

Общее
Уникальный идентификатор : 237501258441839757925169157665582806831 (0xB2AD141B9BE3F233B6DBB36C1A8CF72F)
Полное имя : E:\торреннты\Worth.2018.P.WEB-DL.72Op.mkv
Формат : Matroska
Версия формата : Version 2
Размер файла : 3,19 Гбайт
Продолжительность : 1 ч. 26 м.
Режим общего битрейта : Переменный
Общий поток : 5283 Кбит/сек
Дата кодирования : UTC 2018-12-09 12:02:26
Программа кодирования : mkvmerge v8.3.0 ('Over the Horizon') 64bit
Библиотека кодирования : libebml v1.3.1 + libmatroska v1.4.2

Видео
Идентификатор : 1
Формат : AVC
Формат/Информация : Advanced Video Codec
Профиль формата : High@L4.1
Настройки формата : CABAC / 4 Ref Frames
Параметр CABAC формата : Да
Параметр RefFrames формата : 4 кадра
Идентификатор кодека : V_MPEG4/ISO/AVC
Продолжительность : 1 ч. 26 м.
Вид битрейта : Переменный
Битрейт : 4894 Кбит/сек
Максимальный битрейт : 5500 Кбит/сек
Ширина : 1280 пикселей
Высота : 544 пикселя
Соотношение сторон : 2,35:1
Режим частоты кадров : Постоянный
Частота кадров : 23,976 (24000/1001) кадра/сек
Стандарт вещания : Component
Цветовое пространство : YUV
Субдискретизация насыщенности : 4:2:0
Битовая глубина : 8 бит
Тип развёртки : Прогрессивная
Бит/(Пиксели*Кадры) : 0.287
Размер потока : 2,89 Гбайт (91%)
Default : Да
Forced : Нет
Цветовой диапазон : Limited
Основные цвета : BT.709
Характеристики трансфера : BT.709
Коэффициенты матрицы : BT.709

Аудио
Идентификатор : 2
Формат : AC-3
Формат/Информация : Audio Coding 3
Идентификатор кодека : A_AC3
Продолжительность : 1 ч. 26 м.
Вид битрейта : Постоянный
Битрейт : 384 Кбит/сек
Каналы : 2 канала
Расположение каналов : Front: L R
Частота : 48,0 КГц
Частота кадров : 31,250 кадров/сек (1536 SPF)
Битовая глубина : 16 бит
Метод сжатия : С потерями
Размер потока : 237 Мбайт (7%)
ServiceKind/String : Complete Main
Default : Да
Forced : Нет

pb.wtf



Скачать Цена победы через торрент https://c.radikal.ru/c35/1812/e8/e7e05b22592e.jpg Скачать фильм Цена победы через торрент бесплантно в хорошем качестве Описание: Рикки, один из лучших бойцов в муай-тай. Он тяжело тренируется, чтобы получить чемпионский титул, но параллельно ему приходится ... 10 10 3
Торрент: Зарегистрирован [2018-12-10 05:57] · скачан: 28 раз
Статус: T временная
Размер: 3.19 GB
Как cкачать? Как скачать Цена победы через торрент | qTorrent

% Раздел Тема Автор DL S | L
T Фильмы (мультфильмы) cо спонсором показа (Новинки AVI/MKV) [ 1.37 GB ] Цена победы / Worth [2018 WEB-DLRip] MVO ["Синема УС"] bober100 Скачать
1 | 0

28-11-2019 20:33  

Отключить всю рекламу на сайте

    Дорогой пользователь! Огромная просьба, поблагодарите релизера, оцените раздачу и оставьте свои комментарий, если Вы скачали Цена победы через торрент бесплатно! Внесите свою лепту в развитие PiratBit!
    Комментировать посты могут только пользователи прошедшие не сложную регистрацию
    Показать сообщения:    

    Цена победы через торрент
    Скачать бесплатно Цена победы
    Цена победы скачать торрент
    Цена победы смотреть онлайн
    Cкачать фильм Цена победы бесплатно
    Цена победы скачать торрент в хорошем качестве
    Цена победы смотреть онлайн бесплатно в хорошем качестве


    Вы не можете начинать темы
    Вы не можете отвечать на сообщения
    Вы не можете редактировать свои сообщения
    Вы не можете удалять свои сообщения
    Вы не можете голосовать в опросах
    Вы не можете прикреплять файлы к сообщениям
    Вы можете скачивать файлы