Ссылка на приватное зеркало нашего сайта всего за 1$. Внимание количество ограничено!!!

2 сезон

iTunes

1 сезон

1

2 сезон

2 сезон

iTunes

1 сезон

RePack

30

Новинка

ВАЖНО

ИГРА 18+

pack

RePack

MK11
pack

Забери бонус

RePack

jed

!!Акция!!

Alien_Rage

RePack

fifa19

RePack

Assassins Creed: Odyssey

RePack

NEED FOR SPEED™ PAYBACK

4 сезон

9 сезон

Бесстыжие 9 сезон

Все сериалы

все сериалы на PB.wtf

RePack

FAR CRY 5
  

Смертельная гонка 4: Вне анархии / Death Race 4: Beyond Anarchy (Дон Майкл Пол) [2018, боевик, BDRip-HEVC 1080p, (10bit)] DUB [Лицензия] pb.wtf

Смертельная гонка 4: Вне анархии через торрент pb.wtf

Размер: 4.33 GB | Добавлен: 1 год 11 мес. назад | Торрент скачан:210 раз
Скачать  

10-12-2018 08:01 Смертельная гонка 4: Вне анархии Скачать торрент  

Смертельная гонка 4: Вне анархии / Death Race 4: Beyond Anarchy
Год выпуска: 2018
Страна: США
Жанр: боевик
Продолжительность: 01:50:58
Перевод: Дублированный | Лицензия
Субтитры: Русские

Режиссер: Дон Майкл Пол

rating

В ролях:

Зэк МакГоун, Фредерик Колер, Кристин Мардзано, Еннис Чун-Ян, Кэсси Клер, Люси Саутхолл, Дэнни Гловер, Дэнни Трехо, Николас Аарон, Камерон Джек

Описание:

Продолжение известной серии фильмов про смертельную гонку. Главный герой знакомится с агентом телеканала в местном баре, что приводит его к участию в гонке. Теперь в битве участвуют уже не заключенные. Гонщиками становятся все отъявленные негодяи, насильники и убийцы. Когда герой отказывается от гонки, его семью берут в заложники , а самого насильно заставляют сесть за руль. Теперь вся пустыня - это поле для адских гонок. Сможет ли главный герой сохранить жизнь себе и своим близким?

Качество: BDRip-HEVC 1080p
Формат: MKV

Видео: HEVC/H.265, 1920x1080, ~4307 Kbps, 10 bit
Аудио#1: AC3, 6 ch, 640 Kbps - Дублированный
Аудио#2: AC3, 6 ch, 640 Kbps - Английский
скриншот  скриншот  скриншот  скриншот  

Общее
Уникальный идентификатор : 324448802103276970929578037825999696915 (0xF41690FB99DCB2DB72E78E567D977413)
Полное имя : F:РАЗДАЧИDeath Race 4 Beyond Anarchy (2018) BDRip 1080p [HEVC] 10bit.mkv
Формат : Matroska
Версия формата : Version 4 / Version 2
Размер файла : 4,33 Гбайт
Продолжительность : 1 ч. 50 м.
Общий поток : 5589 Кбит/сек
Название фильма : Death Race 4: Beyond Anarchy
Описание : After an attack on inmate Frankenstein fails a Black Ops specialist enters the maximum prison to join the illegal Death Race and take down Frankenstein.
Дата кодирования : UTC 2018-12-09 12:06:32
Программа кодирования : mkvmerge v25.0.0 ('Prog Noir') 64-bit
Библиотека кодирования : libebml v1.3.6 + libmatroska v1.4.9 / Lavf57.71.100
Attachments : poster.jpg
ACTORS : Lucy Aarden, Nicholas Aaron, Jasette Amos, Victoria Ananieva
COUNTRY : USA, Bulgaria
DATE : 2018
DIRECTOR : Don Michael Paul
ENCODING_INFO : MPEGTS > MKV 1080p 10-bit / H264 > X265 CRF 20.0 Medium / DTS > AC3 CBR 640kbps / DTS-HD MA > AC3 CBR 640kbps
GENRE : Action
HD_VIDEO : 1
IMDB_RATING : 5.3
ITUNEXTC : mpaa|R|400|
Язык : und
MEDIA_TYPE : 9
WRITER : Paul W.S. Anderson (story), Tony Giglio (screenplay), Tony Giglio (story), Don Michael Paul (screenplay)

Видео
Идентификатор : 1
Формат : HEVC
Формат/Информация : High Efficiency Video Coding
Профиль формата : Main 10@L4.1@High
Идентификатор кодека : V_MPEGH/ISO/HEVC
Продолжительность : 1 ч. 50 м.
Битрейт : 4307 Кбит/сек
Ширина : 1920 пикселей
Высота : 1080 пикселей
Соотношение сторон : 16:9
Режим частоты кадров : Постоянный
Частота кадров : 23,976 (24000/1001) кадра/сек
Цветовое пространство : YUV
Субдискретизация насыщенности : 4:2:0
Битовая глубина : 10 бит
Бит/(Пиксели*Кадры) : 0.087
Размер потока : 3,34 Гбайт (77%)
Библиотека кодирования : x265 2.8+74-fd517ae68f93:[Windows][GCC 7.3.0][64 bit] 10bit
Настройки программы : cpuid=1111039 / frame-threads=13 / numa-pools=12 / wpp / no-pmode / no-pme / no-psnr / no-ssim / log-level=3 / input-csp=1 / input-res=1920x1080 / interlace=0 / total-frames=0 / level-idc=41 / high-tier=1 / uhd-bd=0 / ref=5 / allow-non-conformance / no-repeat-headers / annexb / no-aud / no-hrd / info / hash=0 / no-temporal-layers / no-open-gop / min-keyint=24 / keyint=240 / gop-lookahead=0 / bframes=9 / b-adapt=2 / b-pyramid / bframe-bias=0 / rc-lookahead=40 / lookahead-slices=6 / scenecut=40 / radl=0 / no-intra-refresh / ctu=64 / min-cu-size=8 / rect / amp / max-tu-size=32 / tu-inter-depth=1 / tu-intra-depth=1 / limit-tu=0 / rdoq-level=0 / dynamic-rd=0.00 / no-ssim-rd / signhide / no-tskip / nr-intra=0 / nr-inter=0 / no-constrained-intra / no-strong-intra-smoothing / max-merge=2 / limit-refs=3 / no-limit-modes / me=3 / subme=7 / merange=57 / temporal-mvp / weightp / no-weightb / no-analyze-src-pics / deblock=-2:-2 / no-sao / no-sao-non-deblock / rd=3 / no-early-skip / rskip / no-fast-intra / no-tskip-fast / no-cu-lossless / no-b-intra / no-splitrd-skip / rdpenalty=0 / psy-rd=2.00 / psy-rdoq=0.00 / no-rd-refine / no-lossless / cbqpoffs=0 / crqpoffs=0 / rc=crf / crf=20.0 / qcomp=0.60 / qpstep=4 / stats-write=0 / stats-read=0 / vbv-maxrate=50000 / vbv-bufsize=50000 / vbv-init=0.9 / crf-max=0.0 / crf-min=0.0 / ipratio=1.40 / pbratio=1.30 / aq-mode=1 / aq-strength=1.00 / cutree / zone-count=0 / no-strict-cbr / qg-size=32 / no-rc-grain / qpmax=69 / qpmin=0 / no-const-vbv / sar=1 / overscan=0 / videoformat=5 / range=0 / colorprim=1 / transfer=1 / colormatrix=1 / chromaloc=0 / display-window=0 / max-cll=0,0 / min-luma=0 / max-luma=1023 / log2-max-poc-lsb=8 / vui-timing-info / vui-hrd-info / slices=1 / no-opt-qp-pps / no-opt-ref-list-length-pps / no-multi-pass-opt-rps / scenecut-bias=0.05 / no-opt-cu-delta-qp / no-aq-motion / no-hdr / no-hdr-opt / no-dhdr10-opt / no-idr-recovery-sei / analysis-reuse-level=5 / scale-factor=0 / refine-intra=0 / refine-inter=0 / refine-mv=0 / no-limit-sao / ctu-info=0 / no-lowpass-dct / refine-mv-type=0 / copy-pic=1 / max-ausize-factor=1.0 / no-dynamic-refine / no-single-sei
Default : Да
Forced : Нет
Цветовой диапазон : Limited
Основные цвета : BT.709
Характеристики трансфера : BT.709
Коэффициенты матрицы : BT.709

Аудио #1
Идентификатор : 2
Формат : AC-3
Формат/Информация : Audio Coding 3
Идентификатор кодека : A_AC3
Продолжительность : 1 ч. 50 м.
Вид битрейта : Постоянный
Битрейт : 640 Кбит/сек
Каналы : 6 каналов
Расположение каналов : Front: L C R, Side: L R, LFE
Частота : 48,0 КГц
Частота кадров : 31,250 кадров/сек (1536 SPF)
Битовая глубина : 16 бит
Метод сжатия : С потерями
Размер потока : 508 Мбайт (11%)
Язык : Russian
ServiceKind/ : Complete Main
Default : Да
Forced : Нет

Аудио #2
Идентификатор : 3
Формат : AC-3
Формат/Информация : Audio Coding 3
Идентификатор кодека : A_AC3
Продолжительность : 1 ч. 50 м.
Вид битрейта : Постоянный
Битрейт : 640 Кбит/сек
Каналы : 6 каналов
Расположение каналов : Front: L C R, Side: L R, LFE
Частота : 48,0 КГц
Частота кадров : 31,250 кадров/сек (1536 SPF)
Битовая глубина : 16 бит
Метод сжатия : С потерями
Размер потока : 508 Мбайт (11%)
Язык : English
ServiceKind/ : Complete Main
Default : Нет
Forced : Нет

Текст
Идентификатор : 4
Формат : UTF-8
Идентификатор кодека : S_TEXT/UTF8
Идентификатор кодека/Информация : UTF-8 Plain Text
Продолжительность : 1 ч. 46 м.
Битрейт : 63 бит/сек
ElementCount : 862
Размер потока : 49,2 Кбайт (0%)
Default : Да
Forced : Нет

Меню
00:00:00.000 : :Глава 1
00:08:01.230 : :Глава 2
00:14:33.747 : :Глава 3
00:24:28.425 : :Глава 4
00:34:36.491 : :Глава 5
00:45:22.302 : :Глава 6
00:55:16.855 : :Глава 7
01:06:53.426 : :Глава 8
01:15:06.919 : :Глава 9
01:24:36.321 : :Глава 10 / :Глава 11
01:41:54.983 : :Глава 12
01:48:14.696 : :Глава 13

pb.wtf



Скачать Смертельная гонка 4: Вне анархии через торрент http://img12.lostpic.net/2018/01/31/4ba30934b5d8e2e5dce0bcd93a3e06e6.jpg Скачать фильм Смертельная гонка 4: Вне анархии через торрент бесплантно в хорошем качестве Описание: Продолжение известной серии фильмов про смертельную гонку. Главный герой знакомится с агентом телеканала в местном баре, что ... 10 10 5
Торрент: Зарегистрирован [2018-12-10 08:01] · скачан: 210 раз
Статус: √ проверено
Размер: 4.33 GB
Как cкачать? Как скачать Смертельная гонка 4: Вне анархии через торрент | qTorrent

% Раздел Тема Автор DL S | L
Фильмы [HD 720p, 1080p] (Хороший звук DUB, MVO) [ 8.69 GB ] Смертельная гонка 4: Вне анархии / Death Race 4: Beyond Anarchy [2018 BDRip 720p] DUB [] -Lexx- Скачать
1 | 0
Фильмы 2018 [DVDrip, WEB-DLRip, HDrip] (DUB, MVO) [ 2.18 GB ] Смертельная гонка 4: Вне анархии / Death Race 4: Beyond Anarchy [2018 BDRip] Dub + Sub + Original Eng -Lexx- Скачать
1 | 0
Фильмы [HD 720p, 1080p] (Хороший звук DUB, MVO) [ 15.12 GB ] Смертельная гонка 4: Вне анархии / Death Race 4: Beyond Anarchy [2018 BDRip 1080p] DUB [] -Lexx- Скачать
1 | 0
Фильмы 2018 [DVDrip, WEB-DLRip, HDrip] (DUB, MVO) [ 1.46 GB ] Смертельная гонка 4: Вне анархии / Death Race 4: Beyond Anarchy [2018 BDRip] DUB [] -Lexx- Скачать
1 | 0

28-11-2019 20:33  

Отключить всю рекламу на сайте

    Дорогой пользователь! Огромная просьба, поблагодарите релизера, оцените раздачу и оставьте свои комментарий, если Вы скачали Смертельная гонка 4: Вне анархии через торрент бесплатно! Внесите свою лепту в развитие PiratBit!
    Комментировать посты могут только пользователи прошедшие не сложную регистрацию
    Показать сообщения:    

    Смертельная гонка 4: Вне анархии через торрент
    Скачать бесплатно Смертельная гонка 4: Вне анархии
    Смертельная гонка 4: Вне анархии скачать торрент
    Смертельная гонка 4: Вне анархии смотреть онлайн
    Cкачать фильм Смертельная гонка 4: Вне анархии бесплатно
    Смертельная гонка 4: Вне анархии скачать торрент в хорошем качестве
    Смертельная гонка 4: Вне анархии смотреть онлайн бесплатно в хорошем качестве


    Вы не можете начинать темы
    Вы не можете отвечать на сообщения
    Вы не можете редактировать свои сообщения
    Вы не можете удалять свои сообщения
    Вы не можете голосовать в опросах
    Вы не можете прикреплять файлы к сообщениям
    Вы можете скачивать файлы