Ссылка на приватное зеркало нашего сайта всего за 1$. Внимание количество ограничено!!!

2 сезон

iTunes

1 сезон

1

iTunes

iTunes

iTunes

1 сезон

RePack

30

ИГРА 18+

pack

ВАЖНО

!!Акция!!

Alien_RageХит недели

RePack

MK11
pack

Забери бонус

RePack

jed

!!Акция!!

Alien_Rage

RePack

fifa19

RePack

Assassins Creed: Odyssey

RePack

NEED FOR SPEED™ PAYBACK

4 сезон

9 сезон

Бесстыжие 9 сезон

Все сериалы

все сериалы на PB.wtf

RePack

FAR CRY 5
  

Человек без сердца / Серии: 1-4 из 4 (Мария Ткачёва) [2018, Мелодрама, WEBRip 720p] pb.wtf

Человек без сердца через торрент pb.wtf

Размер: 4.23 GB | Добавлен: 1 год 10 мес. назад | Торрент скачан:36 раз
Скачать  

10-12-2018 08:46 Человек без сердца Скачать торрент  

Человек без сердцаГод выпуска: 2018
Страна: Украина
Жанр: Мелодрама
Продолжительность: ~ 00:47:00
Перевод: Не требуется
Субтитры: отсутствуют

Режиссер: Мария Ткачёва



В ролях:

Анастасия Евграфова, Антон Батырев, Михаил Гаврилов (II), Анна Варпаховская, Анастасия Цымбалару, Елена Стефанская, Евгений Лебедин, Юлия Гапчук, Ольга Морозова

Описание:

Жизнь Евгении Лисициной напоминает ожившую сказку – молодая, красивая, с прекрасной карьерой и мужчиной-мечты, который делает ей предложение, подкрепленное крупным бриллиантом. Идиллию рушит звонок в дверь. На пороге маленький мальчик, утверждающий, что он сын Евгении и что он смертельно болен. Маленькому Льву нужна срочная операция, которую может сделать только гениальный кардиохирург Вадим Сафронов. Вот только переживший личную трагедию Вадим больше не оперирует детей...

Качество: WEBRip 720p
Формат: MKV

Видео: MPEG-4 AVC, ~ 3000 Кбит/с, 1280х720
Аудио: AC3, 2 ch, 192 Кбит/с
скриншот  скриншот  скриншот  скриншот  скриншот  

Общее
Уникальный идентификатор : 304487559874763813636867640405981282401 (0xE5122BC1C80FD26D91F46BC8B8DA4061)
Полное имя : E:\Человек без сердца (2018).WEBRip (720p).by.Nicodem.Files-x\01.Человек без сердца (2018).WEBRip (720p).by.Nicodem.Files-x.mkv
Формат : Matroska
Версия формата : Version 4 / Version 2
Размер файла : 1,05 Гбайт
Продолжительность : 47 м. 17 с.
Режим общего битрейта : Постоянный
Общий поток : 3186 Кбит/сек
Программа кодирования : Lavf56.36.100
Библиотека кодирования : Lavf56.36.100

Видео
Идентификатор : 1
Формат : AVC
Формат/Информация : Advanced Video Codec
Профиль формата : High@L3.1
Настройки формата : 2 Ref Frames
Параметр CABAC формата : Нет
Параметр RefFrames формата : 2 кадра
Идентификатор кодека : V_MPEG4/ISO/AVC
Продолжительность : 47 м. 17 с.
Вид битрейта : Постоянный
Битрейт : 3000 Кбит/сек
Ширина : 1280 пикселей
Высота : 720 пикселей
Соотношение сторон : 16:9
Режим частоты кадров : Постоянный
Частота кадров : 25,000 кадров/сек
Стандарт вещания : PAL
Цветовое пространство : YUV
Субдискретизация насыщенности : 4:2:0
Битовая глубина : 8 бит
Тип развёртки : Прогрессивная
Бит/(Пиксели*Кадры) : 0.130
Размер потока : 991 Мбайт (92%)
Default : Да
Forced : Нет
Цветовой диапазон : Limited
Основные цвета : BT.709
Характеристики трансфера : BT.709
Коэффициенты матрицы : BT.709

Аудио
Идентификатор : 2
Формат : AC-3
Формат/Информация : Audio Coding 3
Идентификатор кодека : A_AC3
Продолжительность : 47 м. 17 с.
Вид битрейта : Постоянный
Битрейт : 192 Кбит/сек
Каналы : 2 канала
Расположение каналов : Front: L R
Частота : 48,0 КГц
Частота кадров : 31,250 кадров/сек (1536 SPF)
Битовая глубина : 16 бит
Метод сжатия : С потерями
Задержка видео : -40 мс.
Размер потока : 64,9 Мбайт (6%)
Язык : unknown
ServiceKind/String : Complete Main
Default : Да
Forced : Нет

pb.wtf



Скачать Человек без сердца через торрент https://i108.fastpic.ru/big/2018/1209/fb/443ca160d6dc8ab3244f63fde42afafb.jpg Скачать фильм Человек без сердца через торрент бесплантно в хорошем качестве Описание: Жизнь Евгении Лисициной напоминает ожившую сказку – молодая, красивая, с прекрасной карьерой и мужчиной-мечты, который делает ей ... 10 10 3
Торрент: Зарегистрирован [2018-12-10 08:46] · скачан: 36 раз
Статус: √ проверено
Размер: 4.23 GB
Как cкачать? Как скачать Человек без сердца через торрент | qTorrent

% Раздел Тема Автор DL S | L
Наши сериалы [ 2.54 GB ] Человек без сердца / Серии: 1-4 из 4 [2018 Мело WEBRip] bober100 Скачать
1 | 0
Наши сериалы [ 2.38 GB ] Человек без сердца / Серии: 1-4 из 4 [2018 Мело WEBRip-AVC] bober100 Скачать
1 | 0

28-11-2019 20:33  

Отключить всю рекламу на сайте

    Дорогой пользователь! Огромная просьба, поблагодарите релизера, оцените раздачу и оставьте свои комментарий, если Вы скачали Человек без сердца через торрент бесплатно! Внесите свою лепту в развитие PiratBit!
    Комментировать посты могут только пользователи прошедшие не сложную регистрацию
    Показать сообщения:    

    Человек без сердца через торрент
    Скачать бесплатно Человек без сердца
    Человек без сердца скачать торрент
    Человек без сердца смотреть онлайн
    Cкачать фильм Человек без сердца бесплатно
    Человек без сердца скачать торрент в хорошем качестве
    Человек без сердца смотреть онлайн бесплатно в хорошем качестве


    Вы не можете начинать темы
    Вы не можете отвечать на сообщения
    Вы не можете редактировать свои сообщения
    Вы не можете удалять свои сообщения
    Вы не можете голосовать в опросах
    Вы не можете прикреплять файлы к сообщениям
    Вы можете скачивать файлы