Ссылка на приватное зеркало нашего сайта всего за 1$. Внимание количество ограничено!!!

2 сезон

iTunes

1 сезон

1

2 сезон

2 сезон

iTunes

1 сезон

RePack

30

Новинка

ВАЖНО

ИГРА 18+

pack

RePack

MK11
pack

Забери бонус

RePack

jed

!!Акция!!

Alien_Rage

RePack

fifa19

RePack

Assassins Creed: Odyssey

RePack

NEED FOR SPEED™ PAYBACK

4 сезон

9 сезон

Бесстыжие 9 сезон

Все сериалы

все сериалы на PB.wtf

RePack

FAR CRY 5
  

Между рядами / In den Gängen (Томас Штубер) [2018, драма, BD Remux 1080p] MVO [iTunes] pb.wtf

Между рядами через торрент pb.wtf

Размер: 16.66 GB | Добавлен: 1 год 11 мес. назад | Торрент скачан:9 раз
Скачать  

10-12-2018 09:30 Между рядами Скачать торрент  

Между рядами / In den Gängen Год выпуска: 2018
Страна: Германия
Жанр: драма
Продолжительность: 02:00:10
Перевод: Профессиональный (многоголосый) | iTunes
Субтитры: Английские

Режиссер: Томас Штубер

rating

В ролях:

Сандра Хюллер, Франц Роговский, Петер Курт, Хеннинг Пекер, Рамона Кюнце-Либнов, Матиас Бреннер, Герди Цинт, Клеменс Мейер, Андреас Леупольд, Майкл Спехт

Описание:

Кристиан - новичок в дружной семье работников гипермаркета. В мире бесконечных стеллажей Кристиан встречает Марион из отдела сладостей. Между ними пробегает искра, а кофейный автомат превращается в место для робких встреч. Однако Марион замужем, а Кристиан слишком застенчив, чтобы сделать первый шаг.

Качество: BD Remux 1080p
Формат: MKV

Видео: AVC/H.264, 1920x1080, ~15,8 Мbps, 25 fps
Аудио#1: AC3, 6 ch, 384 Kbps - Русский (MVO iTunes)
Аудио#2: DTS-HD MA, 6 ch, 3658 Kbps - Немецкий
скриншот  скриншот  скриншот  скриншот  

Общее
Уникальный идентификатор : 222593423847373068187935096086131392895 (0xA775EF1D51D9C5D41F878E92F244417F)
Полное имя : In den Gängen.2018.Remux.W.mkv
Формат : Matroska
Версия формата : Version 4
Размер файла : 16,7 Гбайт
Продолжительность : 2 ч. 0 м.
Режим общего битрейта : Переменный
Общий поток : 19,8 Мбит/сек
Название фильма : In den Gängen.2018.Remux.W
Дата кодирования : UTC 2018-12-07 18:24:29
Программа кодирования : mkvmerge v23.0.0 ('The Bride Said No') 64-bit
Библиотека кодирования : libebml v1.3.6 + libmatroska v1.4.9

Видео
Идентификатор : 1
Формат : AVC
Формат/Информация : Advanced Video Codec
Профиль формата : High@L4.1
Настройки формата : CABAC / 3 Ref Frames
Параметр CABAC формата : Да
Параметр RefFrames формата : 3 кадра
Идентификатор кодека : V_MPEG4/ISO/AVC
Продолжительность : 2 ч. 0 м.
Вид битрейта : Переменный
Битрейт : 15,8 Мбит/сек
Максимальный битрейт : 40,0 Мбит/сек
Ширина : 1920 пикселей
Высота : 1080 пикселей
Соотношение сторон : 16:9
Режим частоты кадров : Постоянный
Частота кадров : 25,000 кадров/сек
Цветовое пространство : YUV
Субдискретизация насыщенности : 4:2:0
Битовая глубина : 8 бит
Тип развёртки : Прогрессивная
Бит/(Пиксели*Кадры) : 0.305
Размер потока : 13,3 Гбайт (80%)
Библиотека кодирования : x264 core 125 r2208 d9d2288
Настройки программы : cabac=1 / ref=4 / deblock=1:-1:-1 / analyse=0x3:0x133 / me=umh / subme=10 / psy=1 / psy_rd=1.00:0.15 / mixed_ref=1 / me_range=24 / chroma_me=1 / trellis=2 / 8x8dct=1 / cqm=0 / deadzone=21,11 / fast_pskip=1 / chroma_qp_offset=-3 / threads=36 / lookahead_threads=6 / sliced_threads=0 / slices=4 / nr=0 / decimate=1 / interlaced=fake / bluray_compat=1 / constrained_intra=0 / bframes=3 / b_pyramid=1 / b_adapt=2 / b_bias=0 / direct=3 / weightb=1 / open_gop=1 / weightp=1 / keyint=25 / keyint_min=1 / scenecut=40 / intra_refresh=0 / rc_lookahead=25 / rc=crf / mbtree=1 / crf=15.0 / qcomp=0.60 / qpmin=0 / qpmax=69 / qpstep=4 / vbv_maxrate=40000 / vbv_bufsize=30000 / crf_max=0.0 / nal_hrd=vbr / ip_ratio=1.40 / aq=1:1.00
Язык : German
Default : Да
Forced : Нет
Цветовой диапазон : Limited
Основные цвета : BT.709
Характеристики трансфера : BT.709
Коэффициенты матрицы : BT.709

Аудио #1
Идентификатор : 2
Формат : AC-3
Формат/Информация : Audio Coding 3
Коммерческое название : Dolby Digital
Идентификатор кодека : A_AC3
Продолжительность : 2 ч. 0 м.
Вид битрейта : Постоянный
Битрейт : 384 Кбит/сек
Каналы : 6 каналов
Channel layout : L R C LFE Ls Rs
Частота : 48,0 КГц
Частота кадров : 31,250 кадров/сек (1536 SPF)
Битовая глубина : 16 бит
Метод сжатия : С потерями
Размер потока : 330 Мбайт (2%)
Заголовок : MVO | iTunes
Язык : Russian
ServiceKind : Complete Main
Default : Да
Forced : Нет

Аудио #2
Идентификатор : 3
Формат : DTS XLL
Формат/Информация : Digital Theater Systems
Коммерческое название : DTS-HD Master Audio
Идентификатор кодека : A_DTS
Продолжительность : 2 ч. 0 м.
Вид битрейта : Переменный
Битрейт : 3658 Кбит/сек
Каналы : 6 каналов
Channel layout : C L R Ls Rs LFE
Частота : 48,0 КГц
Частота кадров : 93,750 кадра/сек (512 SPF)
Битовая глубина : 24 бит
Метод сжатия : Без потерь
Размер потока : 3,07 Гбайт (18%)
Язык : German
Default : Нет
Forced : Нет

Текст
Идентификатор : 4
Формат : UTF-8
Идентификатор кодека : S_TEXT/UTF8
Идентификатор кодека/Информация : UTF-8 Plain Text
Продолжительность : 1 ч. 57 м.
Битрейт : 20 бит/сек
ElementCount : 685
Размер потока : 18,0 Кбайт (0%)
Заголовок : Full
Язык : English
Default : Нет
Forced : Нет

Меню
00:00:00.000 : de:Chapter 1
00:02:44.559 : de:Chapter 2
00:15:17.360 : de:Chapter 3
00:28:19.960 : de:Chapter 4
00:40:07.760 : de:Chapter 5
00:53:39.120 : de:Chapter 6
01:06:50.800 : de:Chapter 7
01:17:20.120 : de:Chapter 8
01:27:04.440 : de:Chapter 9
01:35:31.880 : de:Chapter 10
01:52:25.720 : de:Chapter 11
01:55:00.240 : de:Chapter 12
02:00:10.160 : de:Chapter 13

pb.wtf



Скачать Между рядами через торрент http://img14.lostpic.net/2018/12/10/949245aafd418a7a8516db64ebb7d24f.jpg Скачать фильм Между рядами через торрент бесплантно в хорошем качестве Описание: Кристиан - новичок в дружной семье работников гипермаркета. В мире бесконечных стеллажей Кристиан встречает Марион из отдела ... 8.3 10 3
Торрент: Зарегистрирован [2018-12-10 09:30] · скачан: 9 раз
Статус: √ проверено
Размер: 16.66 GB
Как cкачать? Как скачать Между рядами через торрент | qTorrent

% Раздел Тема Автор DL S | L
Фильмы 2018 [DVDrip, WEB-DLRip, HDrip] (DUB, MVO) [ 1.46 GB ] Между рядами / In den Gängen [2018 BDRip] MVO Twi7ter Скачать
1 | 0
Фильмы 2018 [DVDrip, WEB-DLRip, HDrip] (DUB, MVO) [ 2.16 GB ] Между рядами / In den Gängen [2018 BDRip-AVC] MVO bober100 Скачать
1 | 0
Фильмы [HD 720p, 1080p] (Хороший звук DUB, MVO) [ 9.21 GB ] Между рядами / In den Gängen [2018 BDRip 1080p] MVO bober100 Скачать
2 | 0
Фильмы 2018 [DVDrip, WEB-DLRip, HDrip] (DUB, MVO) [ 2.12 GB ] Между рядами / In den Gängen [2018 BDRip] MVO bober100 Скачать
1 | 0
Фильмы 2018 [DVDrip, WEB-DLRip, HDrip] (DUB, MVO) [ 1.41 GB ] Между рядами / In den Gängen [2018 BDRip] MVO bober100 Скачать
2 | 0
Фильмы [HD 720p, 1080p] (Хороший звук DUB, MVO) [ 5.64 GB ] Между рядами / In den Gängen [2018 BDRip 720p] MVO bober100 Скачать
1 | 0

28-11-2019 20:33  

Отключить всю рекламу на сайте

    Дорогой пользователь! Огромная просьба, поблагодарите релизера, оцените раздачу и оставьте свои комментарий, если Вы скачали Между рядами через торрент бесплатно! Внесите свою лепту в развитие PiratBit!
    Комментировать посты могут только пользователи прошедшие не сложную регистрацию
    Показать сообщения:    

    Между рядами через торрент
    Скачать бесплатно Между рядами
    Между рядами скачать торрент
    Между рядами смотреть онлайн
    Cкачать фильм Между рядами бесплатно
    Между рядами скачать торрент в хорошем качестве
    Между рядами смотреть онлайн бесплатно в хорошем качестве


    Вы не можете начинать темы
    Вы не можете отвечать на сообщения
    Вы не можете редактировать свои сообщения
    Вы не можете удалять свои сообщения
    Вы не можете голосовать в опросах
    Вы не можете прикреплять файлы к сообщениям
    Вы можете скачивать файлы