Anonymous, доброй ночи, присоединяйтесь к нам в Telegram!, здесь всегда актуальный адрес сайта, оперативная поддержка и многое другое!

>

5.5

iTunes

7.4

iTunes

7.9

iTunes

1

7.7

1 сезон

6.8

iTunes

7.3

1 сезон

13

6.7

1 сезон

8.3

RePack

30

ULTIMATE

pack

9.9

Лицензия

ВАЖНО

ИГРА 18+

pack

7.3

RePack

MK11

7.7

RePack

jed

7.8

RePack

fifa19

8.5

RePack

RDR2

RePack

NEED FOR SPEED™ PAYBACK

4 сезон

9 сезон

Бесстыжие 9 сезон

Все сериалы

все сериалы на PB.wtf

RePack

FAR CRY 5

Anonymous, доброй ночи, мы катастрофически не успеваем собрать деньги на оплату серверов, помогите нам пожалуйста 5,10,15р., для нас важна любая помощь . В качестве благодарности мы отключим Вам всю рекламу на сайте (укажите свой ник в строку Ваше имя)!

×
  
Magnet ссылка

Полицейский с Рублёвки / Сезоны: 1-4 / Серии: 1-32 из 32 (Илья Куликов) [2016-2018, драма, комедия, HDTVRip, WEBRip] pb.wtf

Полицейский с Рублёвки через торрент pb.wtf

Раздают: 4 [ 165 KB/s ] Качают: 1 [ 0 KB/s ]
Размер: 15.7 GB | Добавлен: 2 года 10 мес. назад | Торрент скачан:1753 раза
Смотреть онлайн Полицейский с Рублёвки | Скачать    Ребята, помогите собрать деньги на оплату серверов!!!

10-12-2018 12:05 Полицейский с Рублёвки Скачать торрент  

Полицейский с Рублёвки Год выпуска: 2016-2018
Страна: Россия
Жанр: драма, комедия
Продолжительность: ~ 00:50:00
Субтитры: отсутствуют

Режиссер: Илья Куликов



В ролях:

Александр Петров, Сергей Бурунов, София Каштанова, Александра Бортич, Татьяна Бабенкова, Роман Попов, Ростислав Гулбис, Сергей Штатнов, Светлана Суханова, Ирина Вилкова

Описание:

«Полицейский с Рублевки» - замечательный жанровый микс, включающий элементы драмы, комедии, легкой любовной лирики и детективных расследований. Главный герой, Гриша Измайлов, призван охранять от представителей криминальной среды сильнейших мира сего-олигархов знаменитой Рублевки. Молодой полицейский легко находит общий язык с вверенным ему контингентом, ведь он является одним из них… В его жизни, казалось бы, есть все, о чем только можно мечтать-деньги, азарт, безумная популярность у представительниц женского пола. Но почему по вечерам баловню жизни бывает так одиноко и тоскливо в его изысканном стильном жилище? Не потому ли, что уже много лет ему приходится хранить тайну, терзающую его до глубины души?

Качество: HDTVRip, WEBRip
Формат: AVI

Видео: XviD, ~ 1400 Кбит/с, 720x400, 720x368, 720x336, 720x304
Аудио: MP3, 2 ch, 128 Кбит/с
скриншот   скриншот   скриншот  

скриншот   скриншот   скриншот  

Общее
Полное имя : E:\Politseyskiy.s.Rublevki_ [tahiy]\01.sezon\Politseyskiy.s.Rublevki.(S01E01)_ [tahiy].avi
Формат : AVI
Формат/Информация : Audio Video Interleave
Размер файла : 503 Мбайт
Продолжительность : 48 м. 55 с.
Общий поток : 1437 Кбит/сек
Программа кодирования : VirtualDubMod 1.5.10.3 | www.virtualdub-fr.org || (build 2550/release)
Библиотека кодирования : VirtualDubMod build 2550/release

Видео
Идентификатор : 0
Формат : MPEG-4 Visual
Профиль формата : Advanced Simple@L5
Настройки формата : BVOP1
Параметр BVOP формата : 1
Параметр QPel формата : Нет
Параметр GMC формата : Без точки перехода
Параметр матрицы формата : Default (MPEG)
Идентификатор кодека : XVID
Идентификатор кодека/Подсказка : XviD
Продолжительность : 48 м. 55 с.
Битрейт : 1299 Кбит/сек
Ширина : 720 пикселей
Высота : 400 пикселей
Соотношение сторон : 16:9
Частота кадров : 25,000 кадров/сек
Цветовое пространство : YUV
Субдискретизация насыщенности : 4:2:0
Битовая глубина : 8 бит
Тип развёртки : Прогрессивная
Метод сжатия : С потерями
Бит/(Пиксели*Кадры) : 0.180
Размер потока : 455 Мбайт (90%)
Библиотека кодирования : XviD 73

Аудио
Идентификатор : 1
Формат : MPEG Audio
Версия формата : Version 1
Профиль формата : Layer 3
Настройки формата : Joint stereo / MS Stereo
Идентификатор кодека : 55
Идентификатор кодека/Подсказка : MP3
Продолжительность : 48 м. 55 с.
Вид битрейта : Постоянный
Битрейт : 128 Кбит/сек
Каналы : 2 канала
Частота : 48,0 КГц
Частота кадров : 41,667 кадра/сек (1152 SPF)
Метод сжатия : С потерями
Размер потока : 44,8 Мбайт (9%)
Выравнивание : Соединение по промежуткам
Продолжительность промежутка : 40 мс. (1,00 видеокадр)
Время предзагрузки промежутка : 504 мс.
Библиотека кодирования : LAME3.99r
Настройки программы : -m j -V 4 -q 2 -lowpass 17 -b 128

pb.wtf



Скачать Полицейский с Рублёвки через торрент http://img14.lostpic.net/2018/12/03/5c4d31b3e91cd3099eb391c2ac504ae0.jpg Скачать, смотреть онлайн Полицейский с Рублёвки бесплантно в хорошем качестве Описание: «Полицейский с Рублевки» - замечательный жанровый микс, включающий элементы драмы, комедии, легкой любовной лирики и детективных ... 10 10 30
Info! Золотая раздача, скачанное не засчитывается.
Торрент: Зарегистрирован [2018-12-10 12:05] · скачан: 1 753 раз
Статус: √ проверено
Размер: 15.7 GB
Как cкачать? Как скачать Полицейский с Рублёвки через торрент | UTorrent

28-11-2019 20:33  

Отключить всю рекламу на сайте

15-03-2019 17:08 Полицейский с Рублёвки Скачать торрент  

Ребята,это версия с цензурой или без?pb.wtf



15-12-2019 11:40 Полицейский с Рублёвки Скачать торрент  

качество не очень pb.wtf



    Дорогой пользователь! Огромная просьба, поблагодарите релизера, оцените раздачу и оставьте свои комментарий, если Вы скачали Полицейский с Рублёвки через торрент бесплатно!
    Комментировать посты могут только пользователи прошедшие не сложную регистрацию
    Показать сообщения:    

    Полицейский с Рублёвки через торрент
    Скачать бесплатно Полицейский с Рублёвки
    Полицейский с Рублёвки скачать торрент
    Полицейский с Рублёвки смотреть онлайн
    Cкачать фильм Полицейский с Рублёвки бесплатно
    Полицейский с Рублёвки скачать торрент в хорошем качестве
    Полицейский с Рублёвки смотреть онлайн бесплатно в хорошем качестве


    Вы не можете начинать темы
    Вы не можете отвечать на сообщения
    Вы не можете редактировать свои сообщения
    Вы не можете удалять свои сообщения
    Вы не можете голосовать в опросах
    Вы не можете прикреплять файлы к сообщениям
    Вы можете скачивать файлы