Anonymous, добрый день, присоединяйтесь к нам в Telegram!, здесь всегда актуальный адрес сайта, оперативная поддержка и многое другое!

>

5.5

iTunes

7.4

iTunes

7.9

iTunes

1

7.7

1 сезон

6.8

iTunes

7.3

1 сезон

13

6.7

1 сезон

8.3

RePack

30

ULTIMATE

pack

9.9

Лицензия

ВАЖНО

ИГРА 18+

pack

7.3

RePack

MK11

7.7

RePack

jed

7.8

RePack

fifa19

8.5

RePack

RDR2

RePack

NEED FOR SPEED™ PAYBACK

4 сезон

9 сезон

Бесстыжие 9 сезон

Все сериалы

все сериалы на PB.wtf

RePack

FAR CRY 5

Anonymous, добрый день, мы катастрофически не успеваем собрать деньги на оплату серверов, помогите нам пожалуйста 5,10,15р., для нас важна любая помощь . В качестве благодарности мы отключим Вам всю рекламу на сайте (укажите свой ник в строку Ваше имя)!

×
  
Magnet ссылка

Полицейский с Рублёвки / Сезоны: 1-5 / Серии: 1-40 из 40 + фильм о сериале (Илья Куликов) [2016-2019, драма, комедия, WEB-DL 1080p] pb.wtf

Полицейский с Рублёвки через торрент pb.wtf

Раздают: 2 [ 860 KB/s ] Качают: 4 [ 0 KB/s ]
Размер: 57.61 GB | Добавлен: 1 год 10 мес. назад | Торрент скачан:358 раз
Смотреть онлайн Полицейский с Рублёвки | Скачать    Ребята, помогите собрать деньги на оплату серверов!!!

10-12-2018 12:11 Полицейский с Рублёвки Скачать торрент  

Полицейский с Рублёвки Год выпуска: 2016-2019
Страна: Россия
Жанр: драма, комедия
Продолжительность: ~ 00:50:00
Субтитры: отсутствуют

Режиссер: Илья Куликов

rating

В ролях: Александр Петров, Сергей Бурунов, София Каштанова, Александра Бортич, Татьяна Бабенкова, Роман Попов, Ростислав Гулбис, Сергей Штатнов, Светлана Суханова, Ирина Вилкова

Описание: «Полицейский с Рублевки» - замечательный жанровый микс, включающий элементы драмы, комедии, легкой любовной лирики и детективных расследований. Главный герой, Гриша Измайлов, призван охранять от представителей криминальной среды сильнейших мира сего-олигархов знаменитой Рублевки. Молодой полицейский легко находит общий язык с вверенным ему контингентом, ведь он является одним из них… В его жизни, казалось бы, есть все, о чем только можно мечтать-деньги, азарт, безумная популярность у представительниц женского пола. Но почему по вечерам баловню жизни бывает так одиноко и тоскливо в его изысканном стильном жилище? Не потому ли, что уже много лет ему приходится хранить тайну, терзающую его до глубины души?

Качество: WEB-DL 1080p
Формат: MKV

Видео: 1920х1080, 1920х960, 1920х888 (16:9), 25 fps, AVC MPEG-4 (x264), High@L4.0 ~ 4000 kbps avg, 0.097 bit/pixel
Аудио: 48 kHz, AC3, 2 ch, 192 kbps avg
скриншот  скриншот  скриншот  скриншот  скриншот  

Общее
Уникальный идентификатор : 249630835295665379935210263053178337691 (0xBBCD266B3D18734999786EEC4831799B)
Полное имя : E:\Polizeyskiy.S.Rublevki.S01-04.2016-2018.WEB-DL.(1080p).Nikolspup\Polizeyskiy.S.Rublevki.S01.2016.WEB-DL.(1080p).Nikolspup\Polizeyskiy.S.Rublevki.S01.(01.seriya.iz.08).2016.WEB-DL.(1080p).Nikolspup.mkv
Формат : Matroska
Версия формата : Version 4 / Version 2
Размер файла : 1,47 Гбайт
Продолжительность : 50 м. 3 с.
Режим общего битрейта : Переменный
Общий поток : 4196 Кбит/сек
Дата кодирования : UTC 2018-05-26 18:01:32
Программа кодирования : mkvmerge v7.8.0 ('River Man') 32bit built on Mar 27 2015 16:18:02
Библиотека кодирования : libebml v1.3.1 + libmatroska v1.4.2

Видео
Идентификатор : 1
Формат : AVC
Формат/Информация : Advanced Video Codec
Профиль формата : High@L4
Настройки формата : CABAC / 3 Ref Frames
Параметр CABAC формата : Да
Параметр RefFrames формата : 3 кадра
Параметр GOP формата : M=1, N=15
Идентификатор кодека : V_MPEG4/ISO/AVC
Продолжительность : 50 м. 3 с.
Вид битрейта : Переменный
Битрейт : 3921 Кбит/сек
Максимальный битрейт : 40,0 Мбит/сек
Ширина : 1920 пикселей
Высота : 1080 пикселей
Соотношение сторон : 16:9
Режим частоты кадров : Постоянный
Частота кадров : 25,000 кадров/сек
Цветовое пространство : YUV
Субдискретизация насыщенности : 4:2:0
Битовая глубина : 8 бит
Тип развёртки : Прогрессивная
Бит/(Пиксели*Кадры) : 0.076
Размер потока : 1,37 Гбайт (93%)
Default : Да
Forced : Нет
Цветовой диапазон : Limited
Основные цвета : BT.709
Характеристики трансфера : BT.709
Коэффициенты матрицы : BT.709

Аудио
Идентификатор : 2
Формат : AC-3
Формат/Информация : Audio Coding 3
Идентификатор кодека : A_AC3
Продолжительность : 50 м. 3 с.
Вид битрейта : Постоянный
Битрейт : 192 Кбит/сек
Каналы : 2 канала
Расположение каналов : Front: L R
Частота : 48,0 КГц
Частота кадров : 31,250 кадров/сек (1536 SPF)
Битовая глубина : 16 бит
Метод сжатия : С потерями
Размер потока : 68,7 Мбайт (5%)
Язык : Russian
ServiceKind/String : Complete Main
Default : Да
Forced : Нет

(1) остановить скачивание,
(2) удалить старый торрент у себя из клиента (старые серии удалять не надо),
(3) скачать новый торрент и запустить его у себя в клиенте вместо старого, при этом указать клиенту путь в старую папку куда и должно происходить скачивание новых серий.
Ваш клиент при этом должен произвести хеширование (проверку) старой папки (если не производит сам - помогите ему сделать это), и будет докачивать только те серии которых у вас ещё нет. Старые серии при этом не удаляются, а продолжают раздаваться!
Eсли вы уже удалили старые серии, то предотвратить повторную закачку старых серий можно, отжав галочку в соответсвующих местах при запуске нового торрента. По возможности, желательно не удалять старые серии как можно дольше чтобы релизёр не столько продолжал раздавать старые серии, а смог сконцентрироваться на новых
.
pb.wtf



Скачать Полицейский с Рублёвки через торрент http://img14.lostpic.net/2018/12/03/5c4d31b3e91cd3099eb391c2ac504ae0.jpg Скачать, смотреть онлайн Полицейский с Рублёвки бесплантно в хорошем качестве Описание: «Полицейский с Рублевки» - замечательный жанровый микс, включающий элементы драмы, комедии, легкой любовной лирики и детективных ... 10 10 38
Info! Золотая раздача, скачанное не засчитывается.
Торрент: Зарегистрирован [2019-12-11 21:16] · скачан: 358 раз
Статус: √ проверено
Размер: 57.61 GB
Как cкачать? Как скачать Полицейский с Рублёвки через торрент | UTorrent



Последний раз редактировалось: bober100 (2019-12-04 21:09), всего редактировалось 4 раз(а)

28-11-2019 20:33  

Отключить всю рекламу на сайте

14-01-2020 09:24 Полицейский с Рублёвки Скачать торрент  

Кто знает, где скачать с 1-4 сезона с цензурой?pb.wtf



08-08-2021 20:09 Полицейский с Рублёвки Скачать торрент  

Здравия Bober! Сериал без цензуры?pb.wtf



    Дорогой пользователь! Огромная просьба, поблагодарите релизера, оцените раздачу и оставьте свои комментарий, если Вы скачали Полицейский с Рублёвки через торрент бесплатно!
    Комментировать посты могут только пользователи прошедшие не сложную регистрацию
    Показать сообщения:    

    Полицейский с Рублёвки через торрент
    Скачать бесплатно Полицейский с Рублёвки
    Полицейский с Рублёвки скачать торрент
    Полицейский с Рублёвки смотреть онлайн
    Cкачать фильм Полицейский с Рублёвки бесплатно
    Полицейский с Рублёвки скачать торрент в хорошем качестве
    Полицейский с Рублёвки смотреть онлайн бесплатно в хорошем качестве


    Вы не можете начинать темы
    Вы не можете отвечать на сообщения
    Вы не можете редактировать свои сообщения
    Вы не можете удалять свои сообщения
    Вы не можете голосовать в опросах
    Вы не можете прикреплять файлы к сообщениям
    Вы можете скачивать файлы