новый адрес
Мега распродажа FORZA HORIZON 4 ULTIMATE+ВСЕ DLC+ОНЛАЙН всего за 499р. 349 руб. (супер цена). Внимание количество ограничено!!!

iTunes

1+1

iTunes

мы

iTunes

1

iTunes

Чернобыль

iTunes

Ральф против интернета

Лицензия

ПШазам

Лицензия

Игра престолов

Лицензия

30
pack

ВАЖНО

!!Акция!!

Alien_RageХит недели

RePack

Resident Evil 21

ИГРА 18+

pack

RePack

Metro:Exodus

!!Акция!!

Alien_Rage

RePack

fifa19

RePack

Assassins Creed: Odyssey

RePack

NEED FOR SPEED™ PAYBACK

3 сезон

9 сезон

Бесстыжие 9 сезон

Все сериалы

все сериалы на PB.wtf

RePack

FAR CRY 5
Ребята, катастрофически не хватает 1900р. для оплаты серверов за Октябрь (всвязи с блокировками трафик упал в 3 раза), 1-2р., выручайте.
  

О чём говорят мужчины. Продолжение (Флюза Фархшатова) [2018, комедия, BDRip 1080p] [Лицензия] pb.wtf

О чём говорят мужчины. Продолжение через торрент pb.wtf

Раздают: 6 [ 0 KB/s ]
Размер: 9.61 GB | Добавлен: 11 мес. назад | Торрент скачан:845 раз
Скачать  

10-12-2018 12:43 О чём говорят мужчины. Продолжение Скачать торрент  

О чём говорят мужчины. Продолжение
Год выпуска: 2018
Страна: Россия
Жанр: комедия
Продолжительность: 01:38:44
Перевод: Не требуется | Лицензия
Субтитры: отсутствуют

Режиссер: Флюза Фархшатова




В ролях:

Леонид Барац, Александр Демидов, Камиль Ларин, Ростислав Хаит, Алексей Барабаш, Елена Подкаминская, Татьяна Догилева, Леонид Каневский, Кристина Бабушкина, Михаил Прохоров

Описание:

На этот раз Леша, Слава, Камиль и Саша едут в Питер. Причем трое из четверых даже не знают, зачем они туда едут. Но в какой-то момент становится понятно, что неважно - зачем. Важно, что едут. И, конечно, плохо, что дома осталась куча нерешенных проблем, но как же хорошо, что про них можно не думать... хотя бы до понедельника. И еще, конечно, плохо, что отстали от сапсана и пришлось ехать в плацкарте, но как же это неожиданно хорошо... и уютно. А еще неожиданно хорошо бывает выпить в пять утра текилу-бум. Вроде рано... но так вовремя! А как это вдохновляет на всякие свершения!

Качество: BDRip 1080p
Формат: MKV

Видео: MPEG-4 AVC, 1920x1040, 11800 kbps, 24,000 fps
Аудио#1: русский, DTS 5.1, 48 kHz, 1509kbps | Лицензия
Аудио#2: русский, AC3 5.1, 48 kHz, 640 kbps
скриншот   скриншот   скриншот   скриншот   скриншот  

General
Уникальный идентификатор : 221473258555915939861600988297508193389 (0xA69E32B3A06D9FE4846BC86D9E58846D)
Полное имя : F:TorrentOchemgovorjatmuzhchinyProdolzenieBDRip1080p.mkv
Формат : Matroska
Версия формата : Version 4 / Version 2
Размер файла : 9.61 GiB
Продолжительность : 1 h 38 min
Общий поток : 13.9 Mb/s
Дата кодирования : UTC 2018-12-10 08:35:39
Программа кодирования : mkvmerge v9.5.0 ('Quiet Fire') 64bit
Библиотека кодирования : libebml v1.3.4 + libmatroska v1.4.5

Video
Идентификатор : 1
Формат : AVC
Формат/Информация : Advanced Video Codec
Профиль формата : High@L4.1
Настройки формата : CABAC / 4 Ref Frames
Параметр CABAC формата : Yes
Параметр RefFrames формата : 4 frames
Идентификатор кодека : V_MPEG4/ISO/AVC
Продолжительность : 1 h 38 min
Битрейт : 11.8 Mb/s
Ширина : 1 920 pixels
Высота : 1 040 pixels
Соотношение сторон : 1.85:1
Режим частоты кадров : Constant
Частота кадров : 24.000 FPS
Цветовое пространство : YUV
Субдискретизация насыщенности : 4:2:0
Битовая глубина : 8 bits
Тип развёртки : Progressive
Бит/(Пиксели*Кадры) : 0.246
Размер потока : 8.13 GiB (85%)
Библиотека кодирования : x264 core 157 r2935M 545de2f
Настройки программы : cabac=1 / ref=4 / deblock=1:-1:-1 / analyse=0x3:0x113 / me=umh / subme=11 / psy=1 / psy_rd=1.00:0.00 / mixed_ref=1 / me_range=32 / chroma_me=1 / trellis=2 / 8x8dct=1 / cqm=0 / deadzone=21,11 / fast_pskip=0 / chroma_qp_offset=-2 / threads=9 / lookahead_threads=2 / sliced_threads=0 / nr=0 / decimate=0 / interlaced=0 / bluray_compat=0 / constrained_intra=0 / bframes=14 / b_pyramid=2 / b_adapt=2 / b_bias=0 / direct=3 / weightb=1 / open_gop=0 / weightp=2 / keyint=240 / keyint_min=24 / scenecut=40 / intra_refresh=0 / rc_lookahead=120 / rc=2pass / mbtree=0 / bitrate=11791 / ratetol=1.0 / qcomp=0.70 / qpmin=0 / qpmax=69 / qpstep=4 / cplxblur=20.0 / qblur=0.5 / vbv_maxrate=50000 / vbv_bufsize=62500 / nal_hrd=none / filler=0 / ip_ratio=1.40 / pb_ratio=1.30 / aq=3:0.80
Язык : Russian
Default : Yes
Forced : No
Цветовой диапазон : Limited
Основные цвета : BT.709
Характеристики трансфера : BT.709
Коэффициенты матрицы : BT.709

Audio #1
Идентификатор : 2
Формат : DTS
Формат/Информация : Digital Theater Systems
Идентификатор кодека : A_DTS
Продолжительность : 1 h 38 min
Вид битрейта : Constant
Битрейт : 1 509 kb/s
Каналы : 6 channels
Расположение каналов : Front: L C R, Side: L R, LFE
Частота : 48.0 kHz
Частота кадров : 93.750 FPS (512 SPF)
Битовая глубина : 24 bits
Метод сжатия : Lossy
Размер потока : 1.04 GiB (11%)
Язык : Russian
Default : Yes
Forced : No

Audio #2
Идентификатор : 3
Формат : AC-3
Формат/Информация : Audio Coding 3
Идентификатор кодека : A_AC3
Продолжительность : 1 h 38 min
Вид битрейта : Constant
Битрейт : 640 kb/s
Каналы : 6 channels
Расположение каналов : Front: L C R, Side: L R, LFE
Частота : 48.0 kHz
Частота кадров : 31.250 FPS (1536 SPF)
Битовая глубина : 16 bits
Метод сжатия : Lossy
Размер потока : 452 MiB (5%)
Язык : Russian
Default : No
Forced : No

Menu
00:00:00.000 : en:Chapter 1
00:01:03.750 : en:Chapter 2
00:10:07.250 : en:Chapter 3
00:20:17.458 : en:Chapter 4
00:34:25.333 : en:Chapter 5
00:46:42.916 : en:Chapter 6
00:59:59.250 : en:Chapter 7
01:11:04.916 : en:Chapter 8
01:26:27.750 : en:Chapter 9

pb.wtf



Скачать О чём говорят мужчины. Продолжение через торрент http://img14.lostpic.net/2018/12/10/85f286cb70c3a2eb3902a964404d7488.png Скачать фильм О чём говорят мужчины. Продолжение через торрент бесплантно в хорошем качестве Описание: На этот раз Леша, Слава, Камиль и Саша едут в Питер. Причем трое из четверых даже не знают, зачем они туда едут. Но в какой-то ... 9.3 10 26
Info! Золотая раздача, скачанное не засчитывается.
Торрент: Зарегистрирован [2018-12-10 12:43] · скачан: 845 раз
Статус: √ проверено
Размер: 9.61 GB
Как cкачать? Как скачать О чём говорят мужчины. Продолжение через торрент | qTorrent

% Раздел Тема Автор DL S | L
Наши новые фильмы 2018-2019 [ 1.46 GB ] О чём говорят мужчины. Продолжение [2018 BDRip] [Русский] [] Twi7ter Скачать
6 | 0
Наши новые фильмы 2018-2019 [ 745 MB ] О чём говорят мужчины. Продолжение [2018 HDRip] [] bober100 Скачать
5 | 0
Наши фильмы (HD, WEB-DL 720p, 1080p) [ 5.49 GB ] О чём говорят мужчины. Продолжение [2018 BDRip 720p] [] bober100 Скачать
3 | 0
Наши новые фильмы 2018-2019 [ 1.46 GB ] О чём говорят мужчины. Продолжение [2018 BDRip] [] bober100 Скачать
11 | 0
Наши фильмы (HD, WEB-DL 720p, 1080p) [ 3.68 GB ] О чём говорят мужчины. Продолжение [2018 WEB-DL 1080p] bober100 Скачать
11 | 0
Наши новые фильмы 2018-2019 [ 745 MB ] О чём говорят мужчины. Продолжение [2018 WEB-DLRip-AVC] bober100 Скачать
3 | 0


>> Регистрируемся здесь <<






Отзывы и комментарии о схеме читаем и пишем здесь: ---> Отзывы и комментарии о схеме

Новые благодарочки в телеграм довольных пользователей:
скриншот   скриншот   скриншот   скриншот   скриншот

12-12-2018 09:39 О чём говорят мужчины. Продолжение Скачать торрент  

Зачетный философский фильм, не для школьников - они не поймут еще.pb.wtf



    Дорогой пользователь! Огромная просьба, поблагодарите релизера, оцените раздачу и оставьте свои комментарий, если Вы скачали О чём говорят мужчины. Продолжение через торрент бесплатно! Внесите свою лепту в развитие PiratBit!
    Комментировать посты могут только пользователи прошедшие не сложную регистрацию
    Показать сообщения:    

    О чём говорят мужчины. Продолжение через торрент
    Скачать бесплатно О чём говорят мужчины. Продолжение
    О чём говорят мужчины. Продолжение скачать торрент
    О чём говорят мужчины. Продолжение смотреть онлайн
    Cкачать фильм О чём говорят мужчины. Продолжение бесплатно
    О чём говорят мужчины. Продолжение скачать торрент в хорошем качестве
    О чём говорят мужчины. Продолжение смотреть онлайн бесплатно в хорошем качестве


    Вы не можете начинать темы
    Вы не можете отвечать на сообщения
    Вы не можете редактировать свои сообщения
    Вы не можете удалять свои сообщения
    Вы не можете голосовать в опросах
    Вы не можете прикреплять файлы к сообщениям
    Вы можете скачивать файлы