новый адрес
Мега распродажа FORZA HORIZON 4 ULTIMATE+ВСЕ DLC+ОНЛАЙН всего за 499р. 349 руб. (супер цена). Внимание количество ограничено!!!

iTunes

1+1

iTunes

мы

iTunes

1

iTunes

Чернобыль

iTunes

Ральф против интернета

Лицензия

ПШазам

Лицензия

Игра престолов

Лицензия

30
pack

ВАЖНО

!!Акция!!

Alien_RageХит недели

RePack

Resident Evil 21

ИГРА 18+

pack

RePack

Metro:Exodus

!!Акция!!

Alien_Rage

RePack

fifa19

RePack

Assassins Creed: Odyssey

RePack

NEED FOR SPEED™ PAYBACK

3 сезон

9 сезон

Бесстыжие 9 сезон

Все сериалы

все сериалы на PB.wtf

RePack

FAR CRY 5
Ребята, катастрофически не хватает 1900р. для оплаты серверов за Октябрь (всвязи с блокировками трафик упал в 3 раза), 1-2р., выручайте.
  

О чём говорят мужчины. Продолжение (Флюза Фархшатова) [2018, комедия, BDRip] [Лицензия] pb.wtf

О чём говорят мужчины. Продолжение через торрент pb.wtf

Раздают: 2 [ 0 KB/s ]
Размер: 1.46 GB | Добавлен: 11 мес. назад | Торрент скачан:1192 раза
Скачать  

10-12-2018 12:48 О чём говорят мужчины. Продолжение Скачать торрент  

О чём говорят мужчины. Продолжение
Год выпуска: 2018
Страна: Россия
Жанр: комедия
Продолжительность: 01:38:44
Перевод: Не требуется | Лицензия
Субтитры: отсутствуют

Режиссер: Флюза Фархшатова




В ролях:

Леонид Барац, Александр Демидов, Камиль Ларин, Ростислав Хаит, Алексей Барабаш, Елена Подкаминская, Татьяна Догилева, Леонид Каневский, Кристина Бабушкина, Михаил Прохоров

Описание:

На этот раз Леша, Слава, Камиль и Саша едут в Питер. Причем трое из четверых даже не знают, зачем они туда едут. Но в какой-то момент становится понятно, что неважно - зачем. Важно, что едут. И, конечно, плохо, что дома осталась куча нерешенных проблем, но как же хорошо, что про них можно не думать... хотя бы до понедельника. И еще, конечно, плохо, что отстали от сапсана и пришлось ехать в плацкарте, но как же это неожиданно хорошо... и уютно. А еще неожиданно хорошо бывает выпить в пять утра текилу-бум. Вроде рано... но так вовремя! А как это вдохновляет на всякие свершения!

Качество: BDRip
Формат: AVI

Видео: Xvid 73, 704x384, ~1659 kbps, 24,000 fps
Аудио: русский, AC3 5.1, 48 kHz, 448 kbps | Лицензия
скриншот   скриншот   скриншот   скриншот   скриншот  
General
Полное имя : F:TorrentOchemgovorjatmuzhchinyProdolzenieBDRip.avi
Формат : AVI
Формат/Информация : Audio Video Interleave
Профиль формата : OpenDML
Размер файла : 1.46 GiB
Продолжительность : 1 h 38 min
Общий поток : 2 119 kb/s
Программа кодирования : XviD4PSP 6.0 / 54.27.101

Video
Идентификатор : 0
Формат : MPEG-4 Visual
Профиль формата : Advanced Simple@L5
Настройки формата : BVOP2 / Custom Matrix
Параметр BVOP формата : 2
Параметр QPel формата : No
Параметр GMC формата : No warppoints
Параметр матрицы формата : Custom
Идентификатор кодека : XVID
Идентификатор кодека/Подсказка : XviD
Продолжительность : 1 h 38 min
Битрейт : 1 659 kb/s
Ширина : 704 pixels
Высота : 384 pixels
Соотношение сторон : 1.85:1
Частота кадров : 24.000 FPS
Цветовое пространство : YUV
Субдискретизация насыщенности : 4:2:0
Битовая глубина : 8 bits
Тип развёртки : Progressive
Метод сжатия : Lossy
Бит/(Пиксели*Кадры) : 0.256
Размер потока : 1.14 GiB (78%)
Библиотека кодирования : XviD 73

Audio
Идентификатор : 1
Формат : AC-3
Формат/Информация : Audio Coding 3
Идентификатор кодека : 2000
Продолжительность : 1 h 38 min
Вид битрейта : Constant
Битрейт : 448 kb/s
Каналы : 6 channels
Расположение каналов : Front: L C R, Side: L R, LFE
Частота : 48.0 kHz
Частота кадров : 31.250 FPS (1536 SPF)
Битовая глубина : 16 bits
Метод сжатия : Lossy
Размер потока : 316 MiB (21%)
Выравнивание : Aligned on interleaves
Продолжительность промежутка : 32 ms (0.77 video frame)
pb.wtf



Скачать О чём говорят мужчины. Продолжение через торрент http://img14.lostpic.net/2018/12/10/85f286cb70c3a2eb3902a964404d7488.png Скачать фильм О чём говорят мужчины. Продолжение через торрент бесплантно в хорошем качестве Описание: На этот раз Леша, Слава, Камиль и Саша едут в Питер. Причем трое из четверых даже не знают, зачем они туда едут. Но в какой-то ... 9.1 10 23
Info! Золотая раздача, скачанное не засчитывается.
Торрент: Зарегистрирован [2018-12-10 12:48] · скачан: 1 192 раз
Статус: √ проверено
Размер: 1.46 GB
Как cкачать? Как скачать О чём говорят мужчины. Продолжение через торрент | qTorrent

% Раздел Тема Автор DL S | L
Наши новые фильмы 2018-2019 [ 1.46 GB ] О чём говорят мужчины. Продолжение [2018 BDRip] [Русский] [] Twi7ter Скачать
3 | 0
Наши фильмы (HD, WEB-DL 720p, 1080p) [ 9.61 GB ] О чём говорят мужчины. Продолжение [2018 BDRip 1080p] [] bober100 Скачать
5 | 0
Наши новые фильмы 2018-2019 [ 745 MB ] О чём говорят мужчины. Продолжение [2018 HDRip] [] bober100 Скачать
1 | 0
Наши фильмы (HD, WEB-DL 720p, 1080p) [ 5.49 GB ] О чём говорят мужчины. Продолжение [2018 BDRip 720p] [] bober100 Скачать
1 | 0
Наши фильмы (HD, WEB-DL 720p, 1080p) [ 3.68 GB ] О чём говорят мужчины. Продолжение [2018 WEB-DL 1080p] bober100 Скачать
6 | 0
Наши новые фильмы 2018-2019 [ 745 MB ] О чём говорят мужчины. Продолжение [2018 WEB-DLRip-AVC] bober100 Скачать
1 | 0


>> Регистрируемся здесь <<






Отзывы и комментарии о схеме читаем и пишем здесь: ---> Отзывы и комментарии о схеме

Новые благодарочки в телеграм довольных пользователей:
скриншот   скриншот   скриншот   скриншот   скриншот
    Дорогой пользователь! Огромная просьба, поблагодарите релизера, оцените раздачу и оставьте свои комментарий, если Вы скачали О чём говорят мужчины. Продолжение через торрент бесплатно! Внесите свою лепту в развитие PiratBit!
    Комментировать посты могут только пользователи прошедшие не сложную регистрацию
    Показать сообщения:    

    О чём говорят мужчины. Продолжение через торрент
    Скачать бесплатно О чём говорят мужчины. Продолжение
    О чём говорят мужчины. Продолжение скачать торрент
    О чём говорят мужчины. Продолжение смотреть онлайн
    Cкачать фильм О чём говорят мужчины. Продолжение бесплатно
    О чём говорят мужчины. Продолжение скачать торрент в хорошем качестве
    О чём говорят мужчины. Продолжение смотреть онлайн бесплатно в хорошем качестве


    Вы не можете начинать темы
    Вы не можете отвечать на сообщения
    Вы не можете редактировать свои сообщения
    Вы не можете удалять свои сообщения
    Вы не можете голосовать в опросах
    Вы не можете прикреплять файлы к сообщениям
    Вы можете скачивать файлы