Ссылка на приватное зеркало нашего сайта всего за 1$. Внимание количество ограничено!!!

2 сезон

iTunes

1 сезон

1

2 сезон

2 сезон

iTunes

1 сезон

RePack

30

Ultimate

ВАЖНО

ИГРА 18+

pack

RePack

MK11
pack

Забери бонус

RePack

jed

!!Акция!!

Alien_Rage

RePack

fifa19

RePack

Assassins Creed: Odyssey

RePack

NEED FOR SPEED™ PAYBACK

4 сезон

9 сезон

Бесстыжие 9 сезон

Все сериалы

все сериалы на PB.wtf

RePack

FAR CRY 5
  

Пайн Гэп / Pine Gap / Сезон: 1 / Серии: 1-6 из 6 (Мат Кинг) [2018, Триллер, драма, детектив, WEB-DL 1080р] [MVO] (РуФилмс) pb.wtf

Пайн Гэп через торрент pb.wtf

Размер: 12.59 GB | Добавлен: 1 год 11 мес. назад | Торрент скачан:10 раз
Скачать  

11-12-2018 07:49 Пайн Гэп Скачать торрент  

Название: Пайн Гэп

Оригинальное название: Pine Gap
Год выхода: 2018
Жанр: Триллер, драма, детектив
Страна: Австралия
Студия: Screentime Pty. Ltd.
Продолжительность: ~00:55:00
Перевод: Профессиональный (многоголосый закадровый) РуФилмс
Субтитры: Русские (Forced, Full), Английские (SDH) и др.

Режиссер: Мат Кинг

В ролях: Паркер Сойерс, Жаклин МакКензи, Стив Туссэн, Тесс Хобрич, Симона Кэссел, Стефен Керри, Льюис Фиц-Джералд, Марк Леонард Винтер, Сачин Джоаб, Эдвина Рен и др.

О сериале: Пайн Гэп – известная военная база США, расположенная в Австралии. Здесь есть подразделения таких организаций, как ЦРУ и АНБ, которые получают свободный доступ к системам видеонаблюдения и контролю за потенциальными угрозами. Сериал рассказывает о взаимодействии двух стран на одной территории.



Файл
Качество: WEB-DL 1080p
Формат: MKV
Видео: MPEG-4 AVC, ~ 4500 Кбит/с, 1920x1080
Аудио RUS: 48 kHz, E-AC3, 6 ch, ~640.00 kbps avg
Аудио ENG: 48 kHz, E-AC3, 6 ch, ~640.00 kbps avg

Релиз группа:



Общее

Уникальный идентификатор : 109092468988168412977684279822090833135 (0x521271FD6BBB52B52383C39990D50CEF)

Полное имя : Pine.Gap.S01.1080p.WEB-DLPine.Gap.S01E01.mkv

Формат : Matroska

Версия формата : Version 4

Размер файла : 2,21 Гбайт

Продолжительность : 56 м. 42 с.

Режим общего битрейта : Переменный

Общий поток : 5582 Кбит/сек

Дата кодирования : UTC 2018-12-09 09:16:02

Программа кодирования : mkvmerge v29.0.0 ('Like It Or Not') 64-bit

Библиотека кодирования : libebml v1.3.6 + libmatroska v1.4.9

Видео

Идентификатор : 1

Формат : AVC

Формат/Информация : Advanced Video Codec

Профиль формата : Main@L4

Настройки формата : CABAC / 3 Ref Frames

Параметр CABAC формата : Да

Параметр RefFrames формата : 3 кадра

Идентификатор кодека : V_MPEG4/ISO/AVC

Продолжительность : 56 м. 42 с.

Вид битрейта : Переменный

Битрейт : 4420 Кбит/сек

Максимальный битрейт : 6630 Кбит/сек

Ширина : 1920 пикселей

Высота : 1080 пикселей

Соотношение сторон : 16:9

Режим частоты кадров : Постоянный

Частота кадров : 25,000 кадров/сек

Цветовое пространство : YUV

Субдискретизация насыщенности : 4:2:0

Битовая глубина : 8 бит

Тип развёртки : Прогрессивная

Бит/(Пиксели*Кадры) : 0.085

Размер потока : 1,70 Гбайт (77%)

Библиотека кодирования : x264 core 148 r2715 7e75228

Настройки программы : cabac=1 / ref=3 / deblock=1:0:0 / analyse=0x1:0x111 / me=umh / subme=10 / psy=1 / psy_rd=1.00:0.00 / mixed_ref=1 / me_range=24 / chroma_me=1 / trellis=2 / 8x8dct=0 / cqm=0 / deadzone=21,11 / fast_pskip=1 / chroma_qp_offset=-2 / threads=8 / lookahead_threads=1 / sliced_threads=0 / nr=0 / decimate=1 / interlaced=0 / bluray_compat=0 / stitchable=1 / constrained_intra=0 / bframes=2 / b_pyramid=0 / b_adapt=2 / b_bias=0 / direct=3 / weightb=1 / open_gop=0 / weightp=2 / keyint=50 / keyint_min=26 / scenecut=0 / intra_refresh=0 / rc_lookahead=50 / rc=2pass / mbtree=1 / bitrate=4420 / ratetol=1.0 / qcomp=0.50 / qpmin=6 / qpmax=51 / qpstep=4 / cplxblur=20.0 / qblur=0.5 / vbv_maxrate=6630 / vbv_bufsize=8840 / nal_hrd=vbr / filler=0 / ip_ratio=1.40 / aq=1:1.00

Default : Да

Forced : Нет

Аудио #1

Идентификатор : 2

Формат : E-AC-3

Формат/Информация : Enhanced AC-3

Коммерческое название : Dolby Digital Plus

Идентификатор кодека : A_EAC3

Продолжительность : 56 м. 42 с.

Вид битрейта : Постоянный

Битрейт : 640 Кбит/сек

Каналы : 6 каналов

Channel layout : L R C LFE Ls Rs

Частота : 48,0 КГц

Частота кадров : 31,250 кадров/сек (1536 SPF)

Метод сжатия : С потерями

Размер потока : 260 Мбайт (11%)

Язык : Russian

Default : Да

Forced : Нет

Аудио #2

Идентификатор : 3

Формат : E-AC-3

Формат/Информация : Enhanced AC-3

Коммерческое название : Dolby Digital Plus

Идентификатор кодека : A_EAC3

Продолжительность : 56 м. 42 с.

Вид битрейта : Постоянный

Битрейт : 640 Кбит/сек

Каналы : 6 каналов

Channel layout : L R C LFE Ls Rs

Частота : 48,0 КГц

Частота кадров : 31,250 кадров/сек (1536 SPF)

Метод сжатия : С потерями

Размер потока : 260 Мбайт (11%)

Язык : English

Default : Нет

Forced : Нет

Текст #1

Идентификатор : 4

Формат : UTF-8

Идентификатор кодека : S_TEXT/UTF8

Идентификатор кодека/Информация : UTF-8 Plain Text

Продолжительность : 55 м. 22 с.

Битрейт : 4 бит/сек

ElementCount : 25

Размер потока : 1,63 Кбайт (0%)

Заголовок : Forced

Язык : Russian

Default : Да

Forced : Да

Текст #2

Идентификатор : 5

Формат : UTF-8

Идентификатор кодека : S_TEXT/UTF8

Идентификатор кодека/Информация : UTF-8 Plain Text

Продолжительность : 54 м. 19 с.

Битрейт : 145 бит/сек

ElementCount : 911

Размер потока : 57,8 Кбайт (0%)

Заголовок : Full

Язык : Russian

Default : Нет

Forced : Нет

Текст #3

Идентификатор : 6

Формат : UTF-8

Идентификатор кодека : S_TEXT/UTF8

Идентификатор кодека/Информация : UTF-8 Plain Text

Продолжительность : 54 м. 16 с.

Битрейт : 93 бит/сек

ElementCount : 960

Размер потока : 37,1 Кбайт (0%)

Заголовок : SDH

Язык : English

Default : Нет

Forced : Нет

Текст #4

Идентификатор : 7

Формат : UTF-8

Идентификатор кодека : S_TEXT/UTF8

Идентификатор кодека/Информация : UTF-8 Plain Text

Продолжительность : 54 м. 19 с.

Битрейт : 153 бит/сек

ElementCount : 959

Размер потока : 60,9 Кбайт (0%)

Язык : Arabic

Default : Нет

Forced : Нет

Текст #5

Идентификатор : 8

Формат : UTF-8

Идентификатор кодека : S_TEXT/UTF8

Идентификатор кодека/Информация : UTF-8 Plain Text

Продолжительность : 54 м. 19 с.

Битрейт : 71 бит/сек

ElementCount : 869

Размер потока : 28,3 Кбайт (0%)

Язык : Danish

Default : Нет

Forced : Нет

Текст #6

Идентификатор : 9

Формат : UTF-8

Идентификатор кодека : S_TEXT/UTF8

Идентификатор кодека/Информация : UTF-8 Plain Text

Продолжительность : 54 м. 19 с.

Битрейт : 85 бит/сек

ElementCount : 959

Размер потока : 33,9 Кбайт (0%)

Язык : German

Default : Нет

Forced : Нет

Текст #7

Идентификатор : 10

Формат : UTF-8

Идентификатор кодека : S_TEXT/UTF8

Идентификатор кодека/Информация : UTF-8 Plain Text

Продолжительность : 54 м. 19 с.

Битрейт : 142 бит/сек

ElementCount : 877

Размер потока : 56,9 Кбайт (0%)

Язык : Greek

Default : Нет

Forced : Нет

Текст #8

Идентификатор : 11

Формат : UTF-8

Идентификатор кодека : S_TEXT/UTF8

Идентификатор кодека/Информация : UTF-8 Plain Text

Продолжительность : 54 м. 19 с.

Битрейт : 89 бит/сек

ElementCount : 842

Размер потока : 35,6 Кбайт (0%)

Язык : Spanish

Default : Нет

Forced : Нет

Текст #9

Идентификатор : 12

Формат : UTF-8

Идентификатор кодека : S_TEXT/UTF8

Идентификатор кодека/Информация : UTF-8 Plain Text

Продолжительность : 54 м. 19 с.

Битрейт : 72 бит/сек

ElementCount : 919

Размер потока : 28,8 Кбайт (0%)

Заголовок : European

Язык : Spanish

Default : Нет

Forced : Нет

Текст #10

Идентификатор : 13

Формат : UTF-8

Идентификатор кодека : S_TEXT/UTF8

Идентификатор кодека/Информация : UTF-8 Plain Text

Продолжительность : 54 м. 19 с.

Битрейт : 78 бит/сек

ElementCount : 851

Размер потока : 31,3 Кбайт (0%)

Язык : Finnish

Default : Нет

Forced : Нет

Текст #11

Идентификатор : 14

Формат : UTF-8

Идентификатор кодека : S_TEXT/UTF8

Идентификатор кодека/Информация : UTF-8 Plain Text

Продолжительность : 54 м. 19 с.

Битрейт : 85 бит/сек

ElementCount : 972

Размер потока : 34,1 Кбайт (0%)

Язык : French

Default : Нет

Forced : Нет

Текст #12

Идентификатор : 15

Формат : UTF-8

Идентификатор кодека : S_TEXT/UTF8

Идентификатор кодека/Информация : UTF-8 Plain Text

Продолжительность : 54 м. 19 с.

Битрейт : 125 бит/сек

ElementCount : 956

Размер потока : 50,0 Кбайт (0%)

Язык : Hebrew

Default : Нет

Forced : Нет

Текст #13

Идентификатор : 16

Формат : UTF-8

Идентификатор кодека : S_TEXT/UTF8

Идентификатор кодека/Информация : UTF-8 Plain Text

Продолжительность : 54 м. 19 с.

Битрейт : 72 бит/сек

ElementCount : 872

Размер потока : 28,8 Кбайт (0%)

Язык : Indonesian

Default : Нет

Forced : Нет

Текст #14

Идентификатор : 17

Формат : UTF-8

Идентификатор кодека : S_TEXT/UTF8

Идентификатор кодека/Информация : UTF-8 Plain Text

Продолжительность : 54 м. 19 с.

Битрейт : 77 бит/сек

ElementCount : 805

Размер потока : 30,7 Кбайт (0%)

Язык : Italian

Default : Нет

Forced : Нет

Текст #15

Идентификатор : 18

Формат : UTF-8

Идентификатор кодека : S_TEXT/UTF8

Идентификатор кодека/Информация : UTF-8 Plain Text

Продолжительность : 54 м. 19 с.

Битрейт : 87 бит/сек

ElementCount : 971

Размер потока : 35,0 Кбайт (0%)

Язык : Japanese

Default : Нет

Forced : Нет

Текст #16

Идентификатор : 19

Формат : UTF-8

Идентификатор кодека : S_TEXT/UTF8

Идентификатор кодека/Информация : UTF-8 Plain Text

Продолжительность : 54 м. 19 с.

Битрейт : 119 бит/сек

ElementCount : 966

Размер потока : 47,6 Кбайт (0%)

Язык : Korean

Default : Нет

Forced : Нет

Текст #17

Идентификатор : 20

Формат : UTF-8

Идентификатор кодека : S_TEXT/UTF8

Идентификатор кодека/Информация : UTF-8 Plain Text

Продолжительность : 54 м. 19 с.

Битрейт : 72 бит/сек

ElementCount : 863

Размер потока : 28,7 Кбайт (0%)

Язык : Norwegian Bokmal

Default : Нет

Forced : Нет

Текст #18

Идентификатор : 21

Формат : UTF-8

Идентификатор кодека : S_TEXT/UTF8

Идентификатор кодека/Информация : UTF-8 Plain Text

Продолжительность : 54 м. 16 с.

Битрейт : 80 бит/сек

ElementCount : 854

Размер потока : 32,1 Кбайт (0%)

Язык : Dutch

Default : Нет

Forced : Нет

Текст #19

Идентификатор : 22

Формат : UTF-8

Идентификатор кодека : S_TEXT/UTF8

Идентификатор кодека/Информация : UTF-8 Plain Text

Продолжительность : 54 м. 19 с.

Битрейт : 77 бит/сек

ElementCount : 874

Размер потока : 30,8 Кбайт (0%)

Язык : Polish

Default : Нет

Forced : Нет

Текст #20

Идентификатор : 23

Формат : UTF-8

Идентификатор кодека : S_TEXT/UTF8

Идентификатор кодека/Информация : UTF-8 Plain Text

Продолжительность : 54 м. 19 с.

Битрейт : 87 бит/сек

ElementCount : 977

Размер потока : 34,9 Кбайт (0%)

Язык : Portuguese

Default : Нет

Forced : Нет

Текст #21

Идентификатор : 24

Формат : UTF-8

Идентификатор кодека : S_TEXT/UTF8

Идентификатор кодека/Информация : UTF-8 Plain Text

Продолжительность : 54 м. 19 с.

Битрейт : 77 бит/сек

ElementCount : 923

Размер потока : 30,8 Кбайт (0%)

Заголовок : Brazilian

Язык : Portuguese

Default : Нет

Forced : Нет

Текст #22

Идентификатор : 25

Формат : UTF-8

Идентификатор кодека : S_TEXT/UTF8

Идентификатор кодека/Информация : UTF-8 Plain Text

Продолжительность : 54 м. 19 с.

Битрейт : 91 бит/сек

ElementCount : 943

Размер потока : 36,6 Кбайт (0%)

Язык : Romanian

Default : Нет

Forced : Нет

Текст #23

Идентификатор : 26

Формат : UTF-8

Идентификатор кодека : S_TEXT/UTF8

Идентификатор кодека/Информация : UTF-8 Plain Text

Продолжительность : 54 м. 20 с.

Битрейт : 67 бит/сек

ElementCount : 849

Размер потока : 26,8 Кбайт (0%)

Язык : Swedish

Default : Нет

Forced : Нет

Текст #24

Идентификатор : 27

Формат : UTF-8

Идентификатор кодека : S_TEXT/UTF8

Идентификатор кодека/Информация : UTF-8 Plain Text

Продолжительность : 54 м. 19 с.

Битрейт : 219 бит/сек

ElementCount : 955

Размер потока : 87,2 Кбайт (0%)

Язык : Thai

Default : Нет

Forced : Нет

Текст #25

Идентификатор : 28

Формат : UTF-8

Идентификатор кодека : S_TEXT/UTF8

Идентификатор кодека/Информация : UTF-8 Plain Text

Продолжительность : 54 м. 19 с.

Битрейт : 83 бит/сек

ElementCount : 923

Размер потока : 33,1 Кбайт (0%)

Язык : Turkish

Default : Нет

Forced : Нет

Текст #26

Идентификатор : 29

Формат : UTF-8

Идентификатор кодека : S_TEXT/UTF8

Идентификатор кодека/Информация : UTF-8 Plain Text

Продолжительность : 54 м. 19 с.

Битрейт : 108 бит/сек

ElementCount : 982

Размер потока : 43,0 Кбайт (0%)

Язык : Vietnamese

Default : Нет

Forced : Нет

Текст #27

Идентификатор : 30

Формат : UTF-8

Идентификатор кодека : S_TEXT/UTF8

Идентификатор кодека/Информация : UTF-8 Plain Text

Продолжительность : 54 м. 19 с.

Битрейт : 88 бит/сек

ElementCount : 955

Размер потока : 35,2 Кбайт (0%)

Заголовок : Simplified

Язык : Chinese

Default : Нет

Forced : Нет

Текст #28

Идентификатор : 31

Формат : UTF-8

Идентификатор кодека : S_TEXT/UTF8

Идентификатор кодека/Информация : UTF-8 Plain Text

Продолжительность : 54 м. 19 с.

Битрейт : 85 бит/сек

ElementCount : 968

Размер потока : 34,0 Кбайт (0%)

Заголовок : Traditional

Язык : Chinese

Default : Нет

Forced : Нет
скриншот  скриншот  скриншот  
pb.wtf



Скачать Пайн Гэп через торрент https://c.radikal.ru/c13/1812/3a/101b3096ffe4.jpg Скачать фильм Пайн Гэп через торрент бесплантно в хорошем качестве В ролях: Паркер Сойерс, Жаклин МакКензи, Стив Туссэн, Тесс Хобрич, Симона Кэссел, Стефен Керри, Льюис Фиц-Джералд, Марк Леонард Винтер, ... 10 10 1
Торрент: Зарегистрирован [2018-12-11 07:49] · скачан: 10 раз
Статус: √ проверено
Размер: 12.59 GB
Как cкачать? Как скачать Пайн Гэп через торрент | qTorrent

% Раздел Тема Автор DL S | L
Зарубежные сериалы [ 26.28 GB ] Пайн Гэп / Pine Gap / Сезон: 1 / Серии: 1-6 из 6 [2018 WEB-DL 1080р] [MVO] killermax2013 Скачать
1 | 0
Зарубежные сериалы [ 4.4 GB ] Пайн Гэп / Pine Gap / Сезон: 1 / Серии: 1-6 из 6 [2018 WEB-DLRip] MVO [РуФилмс] bober100 Скачать
1 | 0

28-11-2019 20:33  

Отключить всю рекламу на сайте

    Дорогой пользователь! Огромная просьба, поблагодарите релизера, оцените раздачу и оставьте свои комментарий, если Вы скачали Пайн Гэп через торрент бесплатно! Внесите свою лепту в развитие PiratBit!
    Комментировать посты могут только пользователи прошедшие не сложную регистрацию
    Показать сообщения:    

    Пайн Гэп через торрент
    Скачать бесплатно Пайн Гэп
    Пайн Гэп скачать торрент
    Пайн Гэп смотреть онлайн
    Cкачать фильм Пайн Гэп бесплатно
    Пайн Гэп скачать торрент в хорошем качестве
    Пайн Гэп смотреть онлайн бесплатно в хорошем качестве


    Вы не можете начинать темы
    Вы не можете отвечать на сообщения
    Вы не можете редактировать свои сообщения
    Вы не можете удалять свои сообщения
    Вы не можете голосовать в опросах
    Вы не можете прикреплять файлы к сообщениям
    Вы можете скачивать файлы